Loading...
Error

Скачать Живое / Life (Даниэль Эспиноса) [2017, ужасы, фантастика, триллер, BDRip] [720p] [DUB] [iTunes] [R.G. GoldenShara] торрент без регистрации

Статистика раздачи
Размер:  2,18 GB   |    Скачан:  265 раз
Сидов:  1  [  0 KB/s  ]  
 
 
 
Автор Сообщение

LORDKILL

[] 


Живое / Life


Год выпуска: 2017
Выпущено: США
Жанр: ужасы, фантастика, триллер
Продолжительность: 01:43:58
Перевод: Профессиональный (полное дублирование)
Субтитры: Русские (форс., полные), английские

Режиссер: Даниэль Эспиноса

В ролях: Джейк Джилленхол, Ребекка Фергюсон (II), Райан Рейнольдс, Ольга Дыховичная, Эрион Бакаре, Хироюки Санада, Наоко Мори, Александр Нгуйен, Камиль Уоррен-Тейлор, Хиу Ун-Син

Описание: Международная космическая станция. Наши дни. С Марса прилетает модуль с образцами пород, куда совершенно случайно затесалась тамошняя инфузория-тапочка в свежезамороженном состоянии. Команда исследователей с упоением начинает издеваться над чужеродным организмом: помещает его в кислотную среду, кормит денатуратом с ложечки, бьет электрическим шокером и поджаривает лазерным резаком. В результате перенесенных потрясений инопланетный гость превращается в агрессивно настроенного пожирателя мозгов, выбирается из инкубатора и устраивает экипажу станции веселую жизнь







Качество: BDRip 720p
Формат: MKV
Видео кодек: H.264
Аудио кодек: AC3
Видео: 1280x536 (2.40:1), 2615 kbps, 23.976 fps
Аудио: Русский (AC-3, 6ch, 384 kbps)

x264 [info]: frame I:1200 Avg QP:13.36 size: 99086
x264 [info]: frame P:34723 Avg QP:16.05 size: 28966
x264 [info]: frame B:113645 Avg QP:18.56 size: 8048
x264 [info]: consecutive B-frames: 2.9% 3.1% 10.6% 15.1% 31.6% 30.3% 4.5% 1.2% 0.8%
x264 [total]: encoded 149568 frames, 8.05 fps, 2615.21 kb/s
General
Unique ID : 210178098451071083872778294598478152968 (0x9E1ED4500723894B868856DE8A654508)
Complete name : E:\ФИЛЬМЫ\Живое.2017.x264.BDRip.720p.DUB.mkv
Format : Matroska
Format version : Version 4 / Version 2
File size : 2.18 GiB
Duration : 1 h 43 min
Overall bit rate : 3 001 kb/s
Movie name : Живое / Life (2017) - #LORDKILL#
Encoded date : UTC 2017-06-13 17:01:00
Writing application : mkvmerge v9.9.0 ('Pick Up') 64bit
Writing library : libebml v1.3.4 + libmatroska v1.4.5
Cover : Yes
Attachments : cover.jpg

Video
ID : 1
Format : AVC
Format/Info : Advanced Video Codec
Format profile : High@L4.1
Format settings, CABAC : Yes
Format settings, ReFrames : 11 frames
Codec ID : V_MPEG4/ISO/AVC
Duration : 1 h 43 min
Bit rate : 2 615 kb/s
Width : 1 280 pixels
Height : 536 pixels
Display aspect ratio : 2.40:1
Frame rate mode : Constant
Frame rate : 23.976 (24000/1001) FPS
Color space : YUV
Chroma subsampling : 4:2:0
Bit depth : 8 bits
Scan type : Progressive
Bits/(Pixel*Frame) : 0.159
Stream size : 1.90 GiB (87%)
Writing library : x264 core 146 r2538 121396c
Encoding settings : cabac=1 / ref=11 / deblock=1:-3:-3 / analyse=0x3:0x113 / me=umh / subme=11 / psy=1 / psy_rd=1.00:0.10 / mixed_ref=1 / me_range=32 / chroma_me=1 / trellis=2 / 8x8dct=1 / cqm=0 / deadzone=21,11 / fast_pskip=0 / chroma_qp_offset=-3 / threads=12 / lookahead_threads=2 / sliced_threads=0 / nr=0 / decimate=1 / interlaced=0 / bluray_compat=0 / constrained_intra=0 / bframes=8 / b_pyramid=2 / b_adapt=2 / b_bias=0 / direct=3 / weightb=1 / open_gop=0 / weightp=2 / keyint=240 / keyint_min=23 / scenecut=40 / intra_refresh=0 / rc=2pass / mbtree=0 / bitrate=2615 / ratetol=1.0 / qcomp=0.60 / qpmin=0 / qpmax=69 / qpstep=4 / cplxblur=20.0 / qblur=0.5 / ip_ratio=1.40 / pb_ratio=1.30 / aq=1:1.00
Default : Yes
Forced : No

Audio
ID : 2
Format : AC-3
Format/Info : Audio Coding 3
Mode extension : CM (complete main)
Format settings, Endianness : Big
Codec ID : A_AC3
Duration : 1 h 43 min
Bit rate mode : Constant
Bit rate : 384 kb/s
Channel(s) : 6 channels
Channel positions : Front: L C R, Side: L R, LFE
Sampling rate : 48.0 kHz
Frame rate : 31.250 FPS (1536 spf)
Bit depth : 16 bits
Compression mode : Lossy
Stream size : 286 MiB (13%)
Title : Дубляж - iTunes
Language : Russian
Default : Yes
Forced : No

Text #1
ID : 3
Format : UTF-8
Codec ID : S_TEXT/UTF8
Codec ID/Info : UTF-8 Plain Text
Duration : 1 h 41 min
Bit rate : 2 b/s
Count of elements : 38
Stream size : 1.50 KiB (0%)
Title : Forced
Language : Russian
Default : Yes
Forced : No

Text #2
ID : 4
Format : UTF-8
Codec ID : S_TEXT/UTF8
Codec ID/Info : UTF-8 Plain Text
Duration : 1 h 41 min
Bit rate : 73 b/s
Count of elements : 1128
Stream size : 54.5 KiB (0%)
Title : Full
Language : Russian
Default : No
Forced : No

Text #3
ID : 5
Format : UTF-8
Codec ID : S_TEXT/UTF8
Codec ID/Info : UTF-8 Plain Text
Duration : 1 h 31 min
Bit rate : 46 b/s
Count of elements : 1101
Stream size : 31.2 KiB (0%)
Title : Full
Language : English
Default : No
Forced : No

Text #4
ID : 6
Format : UTF-8
Codec ID : S_TEXT/UTF8
Codec ID/Info : UTF-8 Plain Text
Duration : 1 h 35 min
Bit rate : 60 b/s
Count of elements : 1437
Stream size : 42.3 KiB (0%)
Title : SDH
Language : English
Default : No
Forced : No

Menu
00:00:00.000 : en:00:00:00.000
00:09:32.864 : en:00:09:32.864
00:13:13.084 : en:00:13:13.084
00:15:36.894 : en:00:15:36.894
00:19:35.341 : en:00:19:35.341
00:24:57.454 : en:00:24:57.454
00:34:36.992 : en:00:34:36.992
00:40:45.109 : en:00:40:45.109
00:43:59.303 : en:00:43:59.303
00:52:21.805 : en:00:52:21.805
00:58:33.927 : en:00:58:33.927
01:06:37.785 : en:01:06:37.785
01:11:43.257 : en:01:11:43.257
01:17:50.875 : en:01:17:50.875
01:22:39.621 : en:01:22:39.621
01:28:34.309 : en:01:28:34.309





Скачать Живое.Life.(Даниэль.Эспиноса).[2017.ужасы.фантастика.триллер.BDRip].[720p].[DUB].[iTunes].[R.G.GoldenShara].torrent без регистрации
Золото ЗОЛОТАЯ РАЗДАЧА! СКАЧАННОЕ НЕ ЗАСЧИТЫВАЕТСЯ! Золото
Дата: Зарегистрирован   [ Тип: внутренний ] Как тут cкачать?
MAGNET ссылка
MAGNET ссылка


Скачать .torrent

11 KB

Статус: проверено
Скачан: торрент - 265 раз, раздача полностью - 257 раз
Размер: 2,18 GB
Оценка:  5 (Голосов: 4)
Поблагодарили: 11
Поделиться ссылкой на эту раздачу с друзьями:
В контактеFacebookОдноклассникиTwitterLivejournalМой МирLiveinternet
 

 

asd-anane

[] 

Спасибо ay Будет с чем провести Понедельник-Пивной день az
 
Показать сообщения:    


Вы не можете начинать темы
Вы не можете отвечать на сообщения
Вы не можете редактировать свои сообщения
Вы не можете удалять свои сообщения
Вы не можете голосовать в опросах
Вы не можете прикреплять файлы к сообщениям
Вы можете скачивать файлы