Loading...
Error

Скачать Красавица и чудовище / Beauty and the Beast (Билл Кондон) [2017, Мюзикл, фэнтези, мелодрама, семейный, BDRip] [720p] [DUB] [iTunes] [R.G. GoldenShara] торрент без регистрации

Статистика раздачи
Размер:  2,98 GB   |    Скачан:  118 раз
Сидов:  1  [  0 KB/s  ]  
 
 
 
Автор Сообщение

LORDKILL

[] 


Красавица и чудовище / Beauty and the Beast


Год выпуска: 2017
Выпущено: США
Жанр: Мюзикл, фэнтези, мелодрама, семейный
Продолжительность: 02:09:17
Перевод: Профессиональный (полное дублирование)
Субтитры: Русские, английские

Режиссер: Билл Кондон

В ролях: Эмма Уотсон, Дэн Стивенс, Люк Эванс, Джош Гэд, Кевин Клайн, Хэтти Морахэн, Хейдн Гвин, Джерард Хоран, Рэй Фиарон, Эван МакГрегор

Описание: Старая-старая сказка, горячо любимая своими зрителями, вновь возвращается на экраны ожившей легендой в виде ремейка анимационного диснеевского фильма по мотивам сказки Жанны-Мари Лепренс де Бомон. Хорошо известный всем сюжет о юной добросердечной девушке Белль, полюбившей заколдованного принца в обличии чудовища за красоту его души оформлен в виде яркого, красивого, насыщенного музыкальными номерами костюмированного фильма. Добавьте сюда отнюдь не бюджетный голливудский размах, спецэффекты компьютерной графики и ожидаемые рекордные сборы, а также Эмму Уотсон в главной роли и решитесь на просмотр - хотя бы для того, чтобы сравнить предлагаемый продукт с оригиналом







Качество: BDRip 720p
Формат: MKV
Видео кодек: H.264
Аудио кодек: AC3
Видео: 1280x536 (2.40:1), 2916 kbps, 23.976 fps
Аудио: Русский (AC-3, 6ch, 384 kbps)

x264 [info]: frame I:1936 Avg QP:17.38 size: 99764
x264 [info]: frame P:45092 Avg QP:19.17 size: 31760
x264 [info]: frame B:138951 Avg QP:22.55 size: 8653
x264 [info]: consecutive B-frames: 3.2% 3.7% 12.2% 23.3% 26.1% 28.0% 2.6% 0.4% 0.3%
x264 [total]: encoded 185979 frames, 8.09 fps, 2916.31 kb/s
General
Unique ID : 186801169684835197113169667417017954412 (0x8C8898BD05D40AC0987BAF8D6094306C)
Complete name : F:\ФИЛЬМЫ\Красавица.и.чудовище.2017.x264.BDRip.720p.DUB.mkv
Format : Matroska
Format version : Version 4 / Version 2
File size : 2.98 GiB
Duration : 2 h 9 min
Overall bit rate : 3 302 kb/s
Movie name : Красавица и чудовище / Beauty and the Beast (2017) - #LORDKILL#
Encoded date : UTC 2017-06-15 12:48:17
Writing application : mkvmerge v9.9.0 ('Pick Up') 64bit
Writing library : libebml v1.3.4 + libmatroska v1.4.5

Video
ID : 1
Format : AVC
Format/Info : Advanced Video Codec
Format profile : High@L4.1
Format settings, CABAC : Yes
Format settings, ReFrames : 11 frames
Codec ID : V_MPEG4/ISO/AVC
Duration : 2 h 9 min
Bit rate : 2 916 kb/s
Width : 1 280 pixels
Height : 536 pixels
Display aspect ratio : 2.40:1
Frame rate mode : Constant
Frame rate : 23.976 (24000/1001) FPS
Color space : YUV
Chroma subsampling : 4:2:0
Bit depth : 8 bits
Scan type : Progressive
Bits/(Pixel*Frame) : 0.177
Stream size : 2.63 GiB (88%)
Writing library : x264 core 146 r2538 121396c
Encoding settings : cabac=1 / ref=11 / deblock=1:-3:-3 / analyse=0x3:0x113 / me=umh / subme=11 / psy=1 / psy_rd=1.00:0.10 / mixed_ref=1 / me_range=32 / chroma_me=1 / trellis=2 / 8x8dct=1 / cqm=0 / deadzone=21,11 / fast_pskip=0 / chroma_qp_offset=-3 / threads=12 / lookahead_threads=2 / sliced_threads=0 / nr=0 / decimate=1 / interlaced=0 / bluray_compat=0 / constrained_intra=0 / bframes=8 / b_pyramid=2 / b_adapt=2 / b_bias=0 / direct=1 / weightb=1 / open_gop=0 / weightp=2 / keyint=240 / keyint_min=23 / scenecut=40 / intra_refresh=0 / rc=crf / mbtree=0 / crf=19.0 / qcomp=0.60 / qpmin=0 / qpmax=69 / qpstep=4 / ip_ratio=1.40 / pb_ratio=1.30 / aq=1:1.00
Language : English
Default : Yes
Forced : No

Audio
ID : 2
Format : AC-3
Format/Info : Audio Coding 3
Mode extension : CM (complete main)
Format settings, Endianness : Big
Codec ID : A_AC3
Duration : 2 h 9 min
Bit rate mode : Constant
Bit rate : 384 kb/s
Channel(s) : 6 channels
Channel positions : Front: L C R, Side: L R, LFE
Sampling rate : 48.0 kHz
Frame rate : 31.250 FPS (1536 spf)
Bit depth : 16 bits
Compression mode : Lossy
Stream size : 354 MiB (12%)
Title : Дубляж - iTunes
Language : Russian
Default : Yes
Forced : No

Text #1
ID : 3
Format : UTF-8
Codec ID : S_TEXT/UTF8
Codec ID/Info : UTF-8 Plain Text
Duration : 2 h 1 min
Bit rate : 77 b/s
Count of elements : 1596
Stream size : 69.4 KiB (0%)
Title : Full (iTunes)
Language : Russian
Default : No
Forced : No

Text #2
ID : 4
Format : UTF-8
Codec ID : S_TEXT/UTF8
Codec ID/Info : UTF-8 Plain Text
Duration : 2 h 8 min
Bit rate : 51 b/s
Count of elements : 1791
Stream size : 48.7 KiB (0%)
Title : Full
Language : English
Default : No
Forced : No

Text #3
ID : 5
Format : UTF-8
Codec ID : S_TEXT/UTF8
Codec ID/Info : UTF-8 Plain Text
Duration : 2 h 8 min
Bit rate : 53 b/s
Count of elements : 2010
Stream size : 50.4 KiB (0%)
Title : SDH
Language : English
Default : No
Forced : No

Menu
00:00:00.000 : en:Once Upon A Time
00:04:36.276 : en:"Belle"
00:08:06.528 : en:Monsiour Gaston
00:11:18.261 : en:"How Does A Moment Last Forever" (Music Box)
00:15:21.546 : en:"Belle" (Reprise)
00:18:57.386 : en:Our Unwitting Host
00:25:05.921 : en:"Forever Can Spare A Minute"
00:31:41.566 : en:The East Wing
00:36:08.708 : en:"Gaston"
00:42:32.258 : en:Lonely
00:47:01.318 : en:"Be Our Guest"
00:54:44.990 : en:Saved By The Beast
01:00:43.557 : en:"Days In The Sun"
01:07:40.932 : en:"Something There"
01:14:38.224 : en:"How Does A Moment Last Forever" (Montmartre)
01:19:43.696 : en:Your Troubled Mind
01:22:02.751 : en:"Beauty And The Beast"
01:28:53.370 : en:"Evermore"
01:34:01.302 : en:"The Mob Song"
01:38:10.176 : en:"Attack!"
01:45:23.692 : en:"I Am Not A Beast"
01:49:13.964 : en:The Final Petal
01:55:54.197 : en:"Beauty And The Beast" (Finale)
01:58:49.497 : en:End Credits





Скачать Красавица.и.чудовище.Beauty.and.the.Beast.(Билл.Кондон).[2017.Мюзикл.фэнтези.мелодрама.семейный.BDRip].[720p].[DUB].[iTunes].[R.G.GoldenShara].torrent без регистрации
Золото ЗОЛОТАЯ РАЗДАЧА! СКАЧАННОЕ НЕ ЗАСЧИТЫВАЕТСЯ! Золото
Дата: Зарегистрирован   [ Тип: внутренний ] Как тут cкачать?
MAGNET ссылка
MAGNET ссылка


Скачать .torrent

15 KB

Статус: проверено
Скачан: торрент - 118 раз, раздача полностью - 123 раз
Размер: 2,98 GB
Оценка:  5 (Голосов: 2)
Поблагодарили: 7
Поделиться ссылкой на эту раздачу с друзьями:
В контактеFacebookОдноклассникиTwitterLivejournalМой МирLiveinternet
 

 
Показать сообщения:    


Вы не можете начинать темы
Вы не можете отвечать на сообщения
Вы не можете редактировать свои сообщения
Вы не можете удалять свои сообщения
Вы не можете голосовать в опросах
Вы не можете прикреплять файлы к сообщениям
Вы можете скачивать файлы