Loading...
Error

Скачать Где-то там / Elsewhere (Нэйтан Хоуп) [2009, триллер, драма, BDRip] [720p] [DVO (Virus)]+[Sub] торрент без регистрации

Статистика раздачи
Размер:  7,33 GB   |    Скачан:  25 раз

Полного источника не было: 21 минута

 
 
 
Автор Сообщение

Marsianka

[] 

Информация о фильме
Название: Где-то там
Оригинальное название: Elsewhere
Год выхода: 2009
Жанр: триллер, драма
Режиссер: Нэйтан Хоуп
В ролях: Анна Кендрик, Чак Картер, Таня Рэймонд, Джон Грайз, Оливия Доун Йорк, Пол Уэсли, Джеффри Дэниэл Филлипс, Шеннон Холт, Кинна МакИнро, Дэн Флэннери

О фильме:
Сара и Джилиан были лучшими друзьями на протяжении столь длительного времени, что даже не могут вспомнить, когда их дружба началась. Жизнь двух девочек в небольшом городке в Индиане очень разная: Сара является талантливой ученицей и спортсменкой, в то время как Джилиан является звездой смутьян. Несмотря на то, что девочки так долго не могут вырваться из небольшого города, Сара потрясена, обнаружив, что Джилиан использует Интернет для удовлетворения мужчин, с единственной целью — найти тех, кто покажет ей что-то захватывающее. Вскоре после этого, она исчезает, оставляя Саре лишь журнал и зашифрованное видеосообщение со своего мобильного телефона. Сара привлекает на помощь Джаспера, резидента компьютерных гениев, который тайно обожает ее. Сара погружается с головой на поисках Джилиан. Тропа ведет этих двоих в темные секреты города, где они обнаружат, почему никто не хочет, чтобы Джилиан нашлась.



Страна: США
Студия: Lost Toys
Продолжительность: 01:46:18
Перевод: любительский двухголосный, закадровый [Virus]

Файл
Кодек: H.264
Качество: BDRip 720p
Видео: MPEG-4 / AVC, 1280x720 (16:9), 23.976 fps ~ 9 Mbps

AC3, 48 KHz, 6 ch ~ 448 Kb/s (русский)
AC3, 48 KHz, 6 ch ~ 448 Kb/s (английский)
Субтитры: испанские

Общее
Уникальный идентификатор : 229856879728896200657211686133994356239 (0xACECD3236D6BF81687993C0A593FFE0F)
Полное имя : Q:TorFElsewhere.2009.720p.nnm_video.mkv
Формат : Matroska
Версия формата : Version 2
Размер файла : 7,33 Гбайт
Продолжительность : 1 ч. 46 м.
Общий поток : 9876 Кбит/сек
Название фильма : Где-то там (Elsewhere) RG NNM Club Video
Дата кодирования : UTC 2017-08-19 19:43:49
Программа кодирования : mkvmerge v14.0.0 ('Flow') 64bit
Библиотека кодирования : libebml v1.3.4 + libmatroska v1.4.5
Attachment : Yes

Видео
Идентификатор : 1
Формат : AVC
Формат/Информация : Advanced Video Codec
Профиль формата : High@L4.1
Параметр CABAC формата : Да
Параметр ReFrames формата : 9 кадров
Идентификатор кодека : V_MPEG4/ISO/AVC
Продолжительность : 1 ч. 46 м.
Битрейт : 9000 Кбит/сек
Ширина : 1280 пикселей
Высота : 720 пикселей
Соотношение сторон : 16:9
Частота кадров : 23,976 кадра/сек
Цветовое пространство : YUV
Субдискретизация насыщенности : 4:2:0
Битовая глубина : 8 бит
Тип развёртки : Прогрессивная
Бит/(Пиксели*Кадры) : 0.407
Размер потока : 6,52 Гбайт (89%)
Заголовок : Где-то там (Elsewhere)
Библиотека кодирования : x264 core 152 r2851 ba24899
Настройки программы : cabac=1 / ref=9 / deblock=1:-1:-1 / analyse=0x3:0x133 / me=umh / subme=11 / psy=1 / psy_rd=1.00:0.15 / mixed_ref=1 / me_range=64 / chroma_me=1 / trellis=2 / 8x8dct=1 / cqm=0 / deadzone=21,11 / fast_pskip=0 / chroma_qp_offset=-3 / threads=6 / lookahead_threads=1 / sliced_threads=0 / nr=0 / decimate=0 / interlaced=0 / bluray_compat=0 / constrained_intra=0 / bframes=16 / b_pyramid=2 / b_adapt=2 / b_bias=0 / direct=3 / weightb=1 / open_gop=0 / weightp=2 / keyint=240 / keyint_min=23 / scenecut=40 / intra_refresh=0 / rc_lookahead=60 / rc=2pass / mbtree=0 / bitrate=9000 / ratetol=1.0 / qcomp=0.60 / qpmin=0 / qpmax=69 / qpstep=4 / cplxblur=20.0 / qblur=0.5 / vbv_maxrate=50000 / vbv_bufsize=62500 / nal_hrd=none / filler=0 / ip_ratio=1.40 / pb_ratio=1.30 / aq=1:1.00
Язык : English
Default : Да
Forced : Нет

Аудио #1
Идентификатор : 2
Формат : AC-3
Формат/Информация : Audio Coding 3
Расширение режима : CM (complete main)
Идентификатор кодека : A_AC3
Продолжительность : 1 ч. 46 м.
Вид битрейта : Постоянный
Битрейт : 448 Кбит/сек
Каналы : 6 каналов
Расположение каналов : Front: L C R, Side: L R, LFE
Частота : 48,0 КГц
Битовая глубина : 16 бит
Метод сжатия : С потерями
Размер потока : 341 Мбайт (5%)
Заголовок : Двухголосый ''VIRUS'' (AC-3, Постоянный, 448 Кбит/сек, 6 каналов, 48,0 КГц, 16 бит)
Язык : Russian
Default : Да
Forced : Нет

Аудио #2
Идентификатор : 3
Формат : AC-3
Формат/Информация : Audio Coding 3
Расширение режима : CM (complete main)
Идентификатор кодека : A_AC3
Продолжительность : 1 ч. 46 м.
Вид битрейта : Постоянный
Битрейт : 448 Кбит/сек
Каналы : 6 каналов
Расположение каналов : Front: L C R, Side: L R, LFE
Частота : 48,0 КГц
Битовая глубина : 16 бит
Метод сжатия : С потерями
Размер потока : 341 Мбайт (5%)
Заголовок : Оригинал (AC-3, Постоянный, 448 Кбит/сек, 6 каналов, 48,0 КГц, 16 бит)
Язык : English
Default : Нет
Forced : Нет

Текст
Идентификатор : 4
Формат : UTF-8
Идентификатор кодека : S_TEXT/UTF8
Идентификатор кодека/Информация : UTF-8 Plain Text
Заголовок : Испанские
Язык : Spanish
Default : Нет
Forced : Нет

Меню
00:00:00.000 : en:Chapter 01
00:12:25.161 : en:Chapter 02
00:23:16.603 : en:Chapter 03
00:37:43.094 : en:Chapter 04
00:47:18.210 : en:Chapter 05
01:00:29.542 : en:Chapter 06
01:10:27.681 : en:Chapter 07
01:17:43.116 : en:Chapter 08
01:29:46.756 : en:Chapter 09
01:38:30.195 : en:Chapter 10



Скачать Где-то.там.Elsewhere.(Нэйтан.Хоуп).[2009.триллер.драма.BDRip].[720p].[DVO.(Virus)]+[Sub].torrent без регистрации
Золото ЗОЛОТАЯ РАЗДАЧА! СКАЧАННОЕ НЕ ЗАСЧИТЫВАЕТСЯ! Золото
Дата: Зарегистрирован   [ Тип: внутренний ] Как тут cкачать?
MAGNET ссылка
MAGNET ссылка


Скачать .torrent

38 KB

Статус: проверено DHT
Скачан: торрент - 25 раз, раздача полностью - 5 раз
Размер: 7,33 GB
Оценка:  - (Голосов: 0)
Поблагодарили: 0
Поделиться ссылкой на эту раздачу с друзьями:
В контактеFacebookОдноклассникиTwitterLivejournalМой МирLiveinternet
 

 
Показать сообщения:    


Вы не можете начинать темы
Вы не можете отвечать на сообщения
Вы не можете редактировать свои сообщения
Вы не можете удалять свои сообщения
Вы не можете голосовать в опросах
Вы не можете прикреплять файлы к сообщениям
Вы можете скачивать файлы