Loading...
Error

Скачать Аватар / Avatar (Джеймс Кэмерон) [2009, фантастика, боевик, драма, приключения, BDRip-HEVC] [1080p] [Extended Collector's Edition] [Dub]+[VO]+[Eng]+[Sub Rus, Eng]x2 торрент без регистрации

Статистика раздачи
Размер:  11,36 GB   |    Скачан:  40 раз
Сидов:  1  [  0 KB/s  ]  
 
 
 
Автор Сообщение

Marsianka

[] 

Информация о фильме
Название: Аватар
Оригинальное название: Avatar
Год выхода: 2009
Жанр: фантастика, боевик, драма, приключения
Режиссер: Джеймс Кэмерон
В ролях: Сэм Уортингтон, Зои Салдана, Сигурни Уивер, Стивен Лэнг, Мишель Родригес, Джованни Рибизи, Джоэль Мур, Си Си Эйч Паундер, Уэс Студи, Лас Алонсо

О фильме:
Джейк Салли — бывший морской пехотинец, прикованный к инвалидному креслу. Несмотря на немощное тело, Джейк в душе по-прежнему остается воином. Он получает задание совершить путешествие в несколько световых лет к базе землян на планете Пандора, где корпорации добывают редкий минерал, имеющий огромное значение для выхода Земли из энергетического кризиса.



Страна: США, Великобритания
Продолжительность: 02:58:09
Перевод: Профессиональный дублированный, одноголосый

Файл
Кодек: HEVC x265 10bit
Качество: BDRip-HEVC 1080p
Видео: 1920x1080, 23.976 кадр/сек, 7785 Кбит/сек, (Main 10@L4.1@High) 10bit

Аудио1: Русская, AC3 448 Кбит/сек, 6 канала(ов),16bit 48,0 КГц DUB (BD EUR)
Аудио2: Русская, AC3 448 Кбит/сек, 6 канала(ов),16bit 48,0 КГц AVO (Сербин)
Аудио3: English, AC3 448 Кбит/сек, 6 канала(ов),16bit 48,0 КГц
Субтитры: Русские форсированные (на речь Нави), полные, english
Навигация по главам: Есть
General
Unique ID : 231284530184479720919098894635631054812 (0xADFFC7BD84E527879DE7A57D33F70FDC)
Complete name : F:HEVCAvatar [Extended Collector's Edition] (2009) BDRip 1080p [HEVC] 10Bit.mkv
Format : Matroska
Format version : Version 4 / Version 2
File size : 11.4 GiB
Duration : 2 h 58 min
Overall bit rate : 9 132 kb/s
Movie name : rip_by_Cthulhu
Encoded date : UTC 2018-02-14 15:45:09
Writing application : mkvmerge v18.0.0 ('Apricity') 64-bit
Writing library : libebml v1.3.5 + libmatroska v1.4.8
Cover : Yes
Attachments : cover1.jpg

Video
ID : 1
Format : HEVC
Format/Info : High Efficiency Video Coding
Format profile : Main 10@L4.1@High
Codec ID : V_MPEGH/ISO/HEVC
Duration : 2 h 58 min
Bit rate : 7 785 kb/s
Width : 1 920 pixels
Height : 1 080 pixels
Display aspect ratio : 16:9
Frame rate mode : Constant
Frame rate : 23.976 (24000/1001) FPS
Color space : YUV
Chroma subsampling : 4:2:0
Bit depth : 10 bits
Bits/(Pixel*Frame) : 0.157
Stream size : 9.69 GiB (85%)
Writing library : x265 2.6+37-1949157705ce:[Windows][GCC 7.3.0][64 bit] 10bit
Encoding settings : cpuid=1050111 / frame-threads=5 / numa-pools=4 / wpp / no-pmode / no-pme / no-psnr / no-ssim / log-level=3 / input-csp=1 / input-res=1920x1080 / interlace=0 / total-frames=0 / level-idc=41 / high-tier=1 / uhd-bd=0 / ref=5 / allow-non-conformance / no-repeat-headers / annexb / no-aud / no-hrd / info / hash=0 / no-temporal-layers / open-gop / min-keyint=24 / keyint=240 / gop-lookahead=0 / bframes=8 / b-adapt=2 / b-pyramid / bframe-bias=0 / rc-lookahead=40 / lookahead-slices=6 / scenecut=40 / radl=0 / no-intra-refresh / ctu=64 / min-cu-size=8 / no-rect / no-amp / max-tu-size=32 / tu-inter-depth=3 / tu-intra-depth=3 / limit-tu=0 / rdoq-level=0 / dynamic-rd=0.00 / no-ssim-rd / signhide / no-tskip / nr-intra=0 / nr-inter=0 / no-constrained-intra / no-strong-intra-smoothing / max-merge=3 / limit-refs=3 / no-limit-modes / me=3 / subme=7 / merange=57 / temporal-mvp / weightp / weightb / no-analyze-src-pics / deblock=-3:-3 / no-sao / no-sao-non-deblock / rd=4 / no-early-skip / rskip / no-fast-intra / no-tskip-fast / no-cu-lossless / no-b-intra / no-splitrd-skip / rdpenalty=0 / psy-rd=2.00 / psy-rdoq=0.00 / no-rd-refine / no-lossless / cbqpoffs=0 / crqpoffs=0 / rc=crf / crf=19.0 / qcomp=0.60 / qpstep=4 / stats-write=0 / stats-read=0 / vbv-maxrate=50000 / vbv-bufsize=35714 / vbv-init=0.9 / crf-max=0.0 / crf-min=0.0 / ipratio=1.40 / pbratio=1.30 / aq-mode=1 / aq-strength=1.00 / cutree / zone-count=0 / no-strict-cbr / qg-size=32 / no-rc-grain / qpmax=69 / qpmin=0 / no-const-vbv / sar=1 / overscan=0 / videoformat=5 / range=0 / colorprim=2 / transfer=2 / colormatrix=2 / chromaloc=0 / display-window=0 / max-cll=0,0 / min-luma=0 / max-luma=1023 / log2-max-poc-lsb=8 / vui-timing-info / vui-hrd-info / slices=1 / no-opt-qp-pps / no-opt-ref-list-length-pps / no-multi-pass-opt-rps / scenecut-bias=0.05 / no-opt-cu-delta-qp / no-aq-motion / no-hdr / no-hdr-opt / no-dhdr10-opt / analysis-reuse-level=5 / scale-factor=0 / refine-intra=0 / refine-inter=0 / refine-mv=0 / no-limit-sao / ctu-info=0 / no-lowpass-dct / refine-mv-type=0 / copy-pic=1
Language : English
Default : Yes
Forced : No
Color range : Full

Audio #1
ID : 2
Format : AC-3
Format/Info : Audio Coding 3
Format settings, Endianness : Big
Codec ID : A_AC3
Duration : 2 h 58 min
Bit rate mode : Constant
Bit rate : 448 kb/s
Channel(s) : 6 channels
Channel positions : Front: L C R, Side: L R, LFE
Sampling rate : 48.0 kHz
Frame rate : 31.250 FPS (1536 SPF)
Bit depth : 16 bits
Compression mode : Lossy
Stream size : 571 MiB (5%)
Title : Dub, BD EUR
Language : Russian
Service kind : Complete Main
Default : Yes
Forced : No

Audio #2
ID : 3
Format : AC-3
Format/Info : Audio Coding 3
Format settings, Endianness : Big
Codec ID : A_AC3
Duration : 2 h 58 min
Bit rate mode : Constant
Bit rate : 448 kb/s
Channel(s) : 6 channels
Channel positions : Front: L C R, Side: L R, LFE
Sampling rate : 48.0 kHz
Frame rate : 31.250 FPS (1536 SPF)
Bit depth : 16 bits
Compression mode : Lossy
Stream size : 571 MiB (5%)
Title : AVO, Serbin
Language : Russian
Service kind : Complete Main
Default : No
Forced : No

Audio #3
ID : 4
Format : AC-3
Format/Info : Audio Coding 3
Format settings, Endianness : Big
Codec ID : A_AC3
Duration : 2 h 58 min
Bit rate mode : Constant
Bit rate : 448 kb/s
Channel(s) : 6 channels
Channel positions : Front: L C R, Side: L R, LFE
Sampling rate : 48.0 kHz
Frame rate : 31.250 FPS (1536 SPF)
Bit depth : 16 bits
Compression mode : Lossy
Stream size : 571 MiB (5%)
Title : Original
Language : English
Service kind : Complete Main
Default : No
Forced : No

Text #1
ID : 5
Format : ASS
Codec ID : S_TEXT/ASS
Codec ID/Info : Advanced Sub Station Alpha
Duration : 2 h 46 min
Bit rate : 13 b/s
Count of elements : 219
Compression mode : Lossless
Stream size : 16.3 KiB (0%)
Title : ExtraForced [Stylezed]
Language : Russian
Default : Yes
Forced : Yes

Text #2
ID : 6
Format : ASS
Codec ID : S_TEXT/ASS
Codec ID/Info : Advanced Sub Station Alpha
Duration : 2 h 53 min
Bit rate : 100 b/s
Count of elements : 1726
Compression mode : Lossless
Stream size : 128 KiB (0%)
Title : ExtraFull [Stylezed]
Language : Russian
Default : No
Forced : No

Text #3
ID : 7
Format : UTF-8
Codec ID : S_TEXT/UTF8
Codec ID/Info : UTF-8 Plain Text
Duration : 2 h 53 min
Bit rate : 40 b/s
Count of elements : 1683
Stream size : 51.1 KiB (0%)
Title : Full
Language : English
Default : No
Forced : No

Menu
00:00:00.000 : :Lost Soul
00:05:25.575 : :A New World
00:10:12.278 : :You Are Not In Kansas Anymore
00:11:47.915 : :"This Is Your Avatar Now, Jake ."
00:15:59.208 : :"This Is Why We're Here..."
00:17:54.782 : :First Awakening
00:23:54.891 : :Colonel Quaritch
00:27:54.547 : :First Sortie
00:30:27.617 : :Abandoned Schoolhouse
00:32:27.904 : :Thanator Chase
00:37:16.525 : :A Sign
00:39:08.053 : :Viperwolves
00:41:18.475 : :Neytiri
00:49:16.912 : :The Omaticaya Clan
00:55:42.213 : :Cover Report
01:01:09.415 : :The Hallelujah Mountains
01:07:03.227 : :Learn Fast Or Die
01:11:50.222 : :A Mother's Pain
01:15:53.799 : :Banshee Rookery
01:22:38.119 : :First Flight
01:26:12.709 : :Clan Hunt
01:27:42.298 : :Last Shadow
01:33:00.407 : :A Son Of the Omaticaya
01:37:36.892 : :Willow Glade Destruction
01:44:15.290 : :Conflict Escalation
01:50:02.595 : :"You Will Never Be One Of The People!"
01:51:53.581 : :Assault On Hometree
01:58:30.895 : :Aftermath
02:02:13.284 : :Escape From Hell's Gate
02:07:51.663 : :There's Something We Gotta Do..."
02:09:30.554 : :Toruk Macto
02:12:36.615 : :"She's Real"
02:16:03.363 : :Recruiting The Clans
02:19:31.654 : :Preamble To Battle
02:23:59.630 : :Battle For Pandora
02:30:05.079 : :Fall Of The Heroes
02:33:56.852 : :Eywa
02:40:02.259 : :Quartich Fight
02:45:33.214 : :"I See You"
02:46:48.498 : :My Brother
02:48:56.793 : :Transformation
02:51:32.073 : :End Credits
Релиз от: Cthulhu



Скачать Аватар.Avatar.(Джеймс.Кэмерон).[2009.фантастика.боевик.драма.приключения.BDRip-HEVC].[1080p].[Extended.Collector's.Edition].[Dub]+[VO]+[Eng]+[Sub.Rus.Eng]x2.torrent без регистрации
Золото ЗОЛОТАЯ РАЗДАЧА! СКАЧАННОЕ НЕ ЗАСЧИТЫВАЕТСЯ! Золото
Дата: Зарегистрирован   [ Тип: внутренний ] Как тут cкачать?
MAGNET ссылка
MAGNET ссылка


Скачать .torrent

58 KB

Статус: проверено DHT
Скачан: торрент - 40 раз, раздача полностью - 36 раз
Размер: 11,36 GB
Оценка:  5 (Голосов: 1)
Поблагодарили: 2
Поделиться ссылкой на эту раздачу с друзьями:
В контактеFacebookОдноклассникиTwitterLivejournalМой МирLiveinternet
 

 
Показать сообщения:    


Вы не можете начинать темы
Вы не можете отвечать на сообщения
Вы не можете редактировать свои сообщения
Вы не можете удалять свои сообщения
Вы не можете голосовать в опросах
Вы не можете прикреплять файлы к сообщениям
Вы можете скачивать файлы