Loading...
Error

Скачать Миллиарды / Billions (Сезон 03) (Джеймс Фоули, Нил Бёргер) [2018, драма, WEB-DL 720p] [MVO] (Jaskier) + [Original] + [Sub] Eng торрент без регистрации

Статистика раздачи
Размер:  11,62 GB   |    Скачан:  164 раза
Сидов:  1  [  0 KB/s  ]  
 
 
 
Автор Сообщение

leon030982

[] 

Миллиарды | Billions
Год выпуска: 2018
Страна: США
Жанр: драма
Продолжительность: ~ 00:45:00
Перевод: Профессиональный (многоголосый закадровый) | Jaskier

Режиссёр: Джеймс Фоули, Нил Бёргер

В ролях: Дэмиэн Льюис, Пол Джаматти, Мэгги Сифф, Малин Акерман, Тоби Леонард Мур, Дэвид Костабайл, Дэниэл К. Исаак, Фрэнк Хартс и др.

Описание: В мире много телесериалов, которые рассказывают о богатеях. А вы когда - нибудь смотрели сериал об их противостоянии. О конфликте двух довольно известных личностях расскажет телесериал «Миллиардеры». Этот фильм снят по сценарию Дэвида Левина и Брайна Коппельмана. Именно они написали сценарий к таким известным фильмам, как «13 друзей Оушена», «Шулера», «Девушка по вызову». Сюжет очень необычен. Здесь столкнутся интересы двух влиятельных людей. Один - юрист Чак Роадса. Он прокурор, известный своей принципиальностью. А второй Бобби Аксельрод – финансист. Он король среди себе подобных. Риск для него обычное дело, да и удача ему всегда улыбается.



Качество: WEB-DL 720p
Формат: MKV
Видео: 1280x720 (16:9) | X264/MPEG4-AVC | ~2000 kbps | 23.976 fps
Аудио 1: AC3 | 48 KHz | 5.1 (Front: L С R Side: L R) + LFE | ~384 kbps [RUS]
Аудио 2: AC3 | 48 KHz | 5.1 (Front: L С R Side: L R) + LFE | ~384 kbps [ENG]
Субтитры: английские
Переведено и озвучено: студией Jaskier
Общее
Уникальный идентификатор : 196385370596545444030905847175408589573 (0x93BE72538907CF73B10D65FB033D1B05)
Полное имя : D:\Яскъер\Billions. Season 3 (WEB-DL l 720p l Jaskier)\Billions.S03E01.720p.WEB-DL.DD5.1.H.264-Jaskier.mkv
Формат : Matroska
Версия формата : Version 2
Размер файла : 1,01 Гбайт
Продолжительность : 59 м. 2 с.
Режим общего битрейта : Переменный
Общий поток : 2437 Кбит/сек
Дата кодирования : UTC 2018-03-31 14:10:03
Программа кодирования : mkvmerge v7.8.0 ('River Man') 32bit built on Apr 3 2015 12:11:22
Библиотека кодирования : libebml v1.3.1 + libmatroska v1.4.2

Видео
Идентификатор : 1
Формат : AVC
Формат/Информация : Advanced Video Codec
Профиль формата : High@L3.1
Настройки формата : CABAC / 5 Ref Frames
Параметр CABAC формата : Да
Параметр RefFrames формата : 5 кадров
Идентификатор кодека : V_MPEG4/ISO/AVC
Продолжительность : 59 м. 2 с.
Вид битрейта : Переменный
Битрейт : 1621 Кбит/сек
Максимальный битрейт : 4500 Кбит/сек
Ширина : 1280 пикселей
Высота : 720 пикселей
Соотношение сторон : 16:9
Режим частоты кадров : Постоянный
Частота кадров : 23,976 (24000/1001) кадра/сек
Цветовое пространство : YUV
Субдискретизация насыщенности : 4:2:0
Битовая глубина : 8 бит
Тип развёртки : Прогрессивная
Бит/(Пиксели*Кадры) : 0.073
Размер потока : 684 Мбайт (66%)
Язык : English
Default : Да
Forced : Нет
Цветовой диапазон : Limited
Основные цвета : BT.709
Характеристики трансфера : BT.709
Коэффициенты матрицы : BT.709

Аудио #1
Идентификатор : 2
Формат : AC-3
Формат/Информация : Audio Coding 3
Идентификатор кодека : A_AC3
Продолжительность : 59 м. 2 с.
Вид битрейта : Постоянный
Битрейт : 384 Кбит/сек
Каналы : 6 каналов
Расположение каналов : Front: L C R, Side: L R, LFE
Частота : 48,0 КГц
Частота кадров : 31,250 кадров/сек (1536 SPF)
Битовая глубина : 16 бит
Метод сжатия : С потерями
Размер потока : 162 Мбайт (16%)
Заголовок : Jaskier
Язык : Russian
ServiceKind/String : Complete Main
Default : Да
Forced : Нет

Аудио #2
Идентификатор : 3
Формат : AC-3
Формат/Информация : Audio Coding 3
Идентификатор кодека : A_AC3
Продолжительность : 59 м. 2 с.
Вид битрейта : Постоянный
Битрейт : 384 Кбит/сек
Каналы : 6 каналов
Расположение каналов : Front: L C R, Side: L R, LFE
Частота : 48,0 КГц
Частота кадров : 31,250 кадров/сек (1536 SPF)
Битовая глубина : 16 бит
Метод сжатия : С потерями
Размер потока : 162 Мбайт (16%)
Язык : English
ServiceKind/String : Complete Main
Default : Нет
Forced : Нет

Текст
Идентификатор : 4
Формат : UTF-8
Идентификатор кодека : S_TEXT/UTF8
Идентификатор кодека/Информация : UTF-8 Plain Text
Язык : English
Default : Нет
Forced : Нет

Меню
00:00:00.000 : en:Studio Logo
00:00:04.000 : en:Previously On
00:01:59.000 : en:Studio Logo
00:02:19.000 : en:Chuck talks with the General
00:05:54.000 : en:Bill wants the funds to flow
00:08:01.000 : en:Taylor tells everybody about the idea dinner
00:12:33.000 : en:Oliver starts a conversation and Chuck gets uncomfortable with it
00:17:56.000 : en:Lara wants to check all the records
00:20:22.000 : en:Bobby lets Lara to check all the records
00:24:18.000 : en:Good to be back home
00:25:14.000 : en:Oliver promises to help Chuck
00:28:38.000 : en:Oliver politely refuses to reveal about the tipster
00:30:26.000 : en:Chuck asks a favor from Ira
00:34:33.000 : en:Wags rejects the suggestions from employees
00:35:37.000 : en:Mike asks Taylor if she is shopping for jobs
00:37:59.000 : en:Sr. Chuck denies an offer from Black Jack
00:40:51.000 : en:Bryan expects something in return
00:42:49.000 : en:Oliver asks Bryan to position themselves to win over Bobby
00:44:21.000 : en:Wendy gives an advice to Bobby
00:46:53.000 : en:Oliver tells a good news to Chuck
00:48:10.000 : en:Lara advises Bobby not to lose his money
00:49:21.000 : en:Taylor comes up with an idea
00:51:33.000 : en:Wendy tells the truth to Chuck
00:55:32.000 : en:Surprise guest at the meeting
00:57:28.000 : en:End Credits
00:57:56.000 : en:Next On
Когда раздача ведётся путём добавления новых серий, при каждом добавлении создётся новый торрент. Чтобы начать докачку новой серии, пользователям необходимо сделать следующее:
(1) остановить скачивание,
(2) удалить старый торрент у себя из клиента (старые серии удалять не надо),
(3) скачать новый торрент и запустить его у себя в клиенте вместо старого, при этом указать клиенту путь в старую папку, куда и должно происходить скачивание новых серий.
Ваш клиент при этом должен произвести хеширование (проверку) старой папки (если не производит сам - помогите ему сделать это), и будет докачивать только те серии, которых у вас ещё нет. Старые серии при этом не удаляются, а продолжают раздаваться!
Eсли вы уже удалили старые серии, то предотвратить повторную закачку старых серий можно, отжав галочку в соответсвующих местах при запуске нового торрента. По возможности, желательно не удалять старые серии как можно дольше, чтобы релизёр не столько продолжал раздавать старые серии, а смог сконцентрироваться на новых.



Скачать Миллиарды.Billions.(Сезон.03).(Джеймс.Фоули.Нил.Бёргер).[2018.драма.WEB-DL.720p].[MVO].(Jaskier).+.[Original].+.[Sub].Eng.torrent без регистрации
Золото ЗОЛОТАЯ РАЗДАЧА! СКАЧАННОЕ НЕ ЗАСЧИТЫВАЕТСЯ! Золото
Дата: Зарегистрирован   [ Тип: внутренний ] Как тут cкачать?
MAGNET ссылка
MAGNET ссылка


Скачать .torrent

60 KB

Статус: проверено DHT
Скачан: торрент - 164 раз, раздача полностью - 0 раз
Размер: 11,62 GB
Оценка:  - (Голосов: 0)
Поблагодарили: 0
Поделиться ссылкой на эту раздачу с друзьями:
В контактеFacebookОдноклассникиTwitterLivejournalМой МирLiveinternet
 

 
Показать сообщения:    


Вы не можете начинать темы
Вы не можете отвечать на сообщения
Вы не можете редактировать свои сообщения
Вы не можете удалять свои сообщения
Вы не можете голосовать в опросах
Вы не можете прикреплять файлы к сообщениям
Вы можете скачивать файлы