Loading...
Error

Скачать Монстры на свободе / Monsters at Large (Джейсон Мерфи) [2018, семейный, приключения, WEB-DL] [1080p] [MVO (HDrezka Studio)]+[Eng]+[Sub Eng] торрент без регистрации

Статистика раздачи
Размер:  3,69 GB   |    Скачан:  158 раз
Сидов:  3  [  0 KB/s  ]  
 
 
 
Автор Сообщение

МихаНЕзатор

[] 

Монстры на свободе / Monsters at Large


Страна: США
Производство: In The Dark Entertainment, Prism Pictures
Год выпуска: 2018
Жанр: семейный, приключения
Режиссер: Джейсон Мерфи
Автор сценария: Энтони Стивен Джордано

В ролях: Миша Бартон, Стивен Тоболовски, Остин Ст. Джон, Мэттью Косто, Огги Пуллиам, Бруклин Принс, Анджела Виневич, Лола Султан

Описание: Алекс решает положить конец кошмарам своего младшего брата, сформировав специальную команду по уничтожению воображаемых монстров маленьких детей. Дело пошло в гору, они стали популярными в своем деле, пока один из монстров не оказался страшным и настоящим...

Дата премьеры (мир): 18 марта 2018



Продолжительность: 01:31:28
Перевод: Любительский (многоголосый, закадровый) | HDrezka Studio
Субтитры: английские

Качество: WEB-DL 1080p
Формат: МКV
Видео кодек: AVC
Аудио кодек: АС3
Видео: 1912x1072 (16:9), 23.976 fps, MPEG-4 AVC ~5 091 kbps avg
Аудио №1: 48.0 kHz, AC3 Dolby Digital, 2/0 (L,R) ch, ~192 kbps | RUS | HDrezka Studio
Аудио №2: 48.0 kHz, AC3 Dolby Digital, 3/2 (L,C,R,l,r) + LFE ch, ~384 kbps | ENG
Формат субтитров: UTF-8 Plain Text
General
Unique ID : 187170639159730113198724120155048449940 (0x8CCFC0FD69D743A098951F3776551794)
Complete name : Monsters At Large 2018 WEB-DL 1080p.mkv
Format : Matroska
Format version : Version 4 / Version 2
File size : 3.69 GiB
Duration : 1h 31mn
Overall bit rate : 5 782 Kbps
Encoded date : UTC 2018-04-02 03:13:01
Writing application : mkvmerge v6.1.0 ('Old Devil') built on Mar 2 2013 14:32:37
Writing library : libebml v1.3.0 + libmatroska v1.4.0

Video
ID : 1
Format : AVC
Format/Info : Advanced Video Codec
Format profile : High@L4.0
Format settings, CABAC : Yes
Format settings, ReFrames : 4 frames
Codec ID : V_MPEG4/ISO/AVC
Duration : 1h 31mn
Bit rate : 5 091 Kbps
Width : 1 912 pixels
Height : 1 072 pixels
Display aspect ratio : 16:9
Frame rate mode : Constant
Frame rate : 23.976 fps
Color space : YUV
Chroma subsampling : 4:2:0
Bit depth : 8 bits
Scan type : Progressive
Bits/(Pixel*Frame) : 0.104
Stream size : 3.25 GiB (88%)
Language : English
Default : Yes
Forced : No
Color primaries : BT.709
Transfer characteristics : BT.709
Matrix coefficients : BT.709

Audio #1
ID : 2
Format : AC-3
Format/Info : Audio Coding 3
Mode extension : CM (complete main)
Format settings, Endianness : Big
Codec ID : A_AC3
Duration : 1h 31mn
Bit rate mode : Constant
Bit rate : 192 Kbps
Channel count : 2 channels
Channel positions : Front: L R
Sampling rate : 48.0 KHz
Bit depth : 16 bits
Compression mode : Lossy
Stream size : 126 MiB (3%)
Title : HDrezka Studio
Language : Russian
Default : Yes
Forced : No

Audio #2
ID : 3
Format : AC-3
Format/Info : Audio Coding 3
Mode extension : CM (complete main)
Format settings, Endianness : Big
Codec ID : A_AC3
Duration : 1h 31mn
Bit rate mode : Constant
Bit rate : 384 Kbps
Channel count : 6 channels
Channel positions : Front: L C R, Side: L R, LFE
Sampling rate : 48.0 KHz
Bit depth : 16 bits
Compression mode : Lossy
Stream size : 251 MiB (7%)
Language : English
Default : No
Forced : No

Text
ID : 4
Format : UTF-8
Codec ID : S_TEXT/UTF8
Codec ID/Info : UTF-8 Plain Text
Language : English
Default : No
Forced : No

Menu
00:00:00.000 : en:1
00:05:43.000 : en:2
00:14:29.000 : en:3
00:22:41.000 : en:4
00:30:22.000 : en:5
00:38:20.000 : en:6
00:46:34.000 : en:7
00:54:41.000 : en:8
01:03:47.000 : en:9
01:11:06.000 : en:10
01:22:40.000 : en:11
01:29:27.000 : en:12



Скачать Монстры.на.свободе.Monsters.at.Large.(Джейсон.Мерфи).[2018.семейный.приключения.WEB-DL].[1080p].[MVO.(HDrezka.Studio)]+[Eng]+[Sub.Eng].torrent без регистрации
Золото ЗОЛОТАЯ РАЗДАЧА! СКАЧАННОЕ НЕ ЗАСЧИТЫВАЕТСЯ! Золото
Дата: Зарегистрирован   [ Тип: внутренний ] Как тут cкачать?
MAGNET ссылка
MAGNET ссылка


Скачать .torrent

19 KB

Статус: проверено DHT
Скачан: торрент - 158 раз, раздача полностью - 230 раз
Размер: 3,69 GB
Оценка:  5 (Голосов: 1)
Поблагодарили: 7
Поделиться ссылкой на эту раздачу с друзьями:
В контактеFacebookОдноклассникиTwitterLivejournalМой МирLiveinternet
 

 
Показать сообщения:    


Вы не можете начинать темы
Вы не можете отвечать на сообщения
Вы не можете редактировать свои сообщения
Вы не можете удалять свои сообщения
Вы не можете голосовать в опросах
Вы не можете прикреплять файлы к сообщениям
Вы можете скачивать файлы