Loading...
Error

Скачать Миллиарды / Billions (Сезон 03) (Эми Дж. Кауфман, Брайан Коппельман, Дэвид Левин) [2018, драма, WEB-DL] [1080p] [MVO] (AlexFilm) торрент без регистрации

Статистика раздачи
Размер:  31,02 GB   |    Скачан:  219 раз
Сидов:  1  [  0 KB/s  ]  
 
 
 
Автор Сообщение

leon030982

[] 


Миллиарды / Billions


Информация о фильме

Год выпуска: 2018
Жанр: драма
Страна: США
Студия: Showtime
Продолжительность: 1x ~01:00:00
Перевод: Профессиональный (многоголосый, закадровый) AlexFilm

Режиссёры: Эми Дж. Кауфман, Брайан Коппельман, Дэвид Левин

В ролях: Дэмиэн Льюис (Bobby Axelrod), Пол Джаматти (Chuck Rhoades), Тоби Леонард Мур (Bryan Connerty), Мэгги Сифф (Wendy Rhoades), Кондола Рашад (Kate Sacker), Келли АуКойн («Dollar» Bill Stearn), Малин Акерман (Lara Axelrod), Дэвид Костабайл (Mike «Wags» Wagner), Дэниэл К. Исаак (Ben Kim), Дэн Содер (Mafee), Ильфенеш Хадера (Deb Kawi), Джек Гор (Gordie Axelrod)


О фильме:

Экстремальное шоу на выживание в мире финансов и власти готовит новую схватку. “Чужой vs. Хищник” – непоколебимый федеральный прокурор Чак Роддс против дерзкого короля хедж-фондов Бобби Аксельрода. Ставки, нервы, амбиции – всё на пределе. Они действительно превращаются в монстров, готовых поступиться самым дорогим ради животного, иррационального желания одержать верх. Друзья, родители, жены в этой борьбе за власть – всего лишь средства достижения цели. И для многих из них это становится очевидным. Смогут ли противники выстоять в одиночку?



Релиз:
Перевод: Александр Астрократов
Монтаж и сведение звука: Михаил Шорыгин

Роли озвучивали:
Маргарита Корш
Екатерина Муравицкая
Владимир Курдов
Кирилл Патрино
Андрей Стакионис
Михаил Шорыгин
Михаил Суслов


Файл

Качество: WEB-DL 1080p
Формат: Matroska
Видео: 1920х1080 (16:9), 23.976 fps, MPEG-4 AVC 8500 kbps avg, 0.104 bit/pixel
Аудио#1: Russian: 48 kHz, EAC3, 3/2 (L,C,R,l,r) + LFE ch, ~384 kbps avg | AlexFilm
Аудио#2: English: 48 kHz, EAC3, 3/2 (L,C,R,l,r) + LFE ch, ~384 kbps avg
Субтитры: нет

Добавлена 12-я серия
Дэмиэн Льюис отдыхал с семьёй в Киллибегсе (это посёлок в Ирландии), когда кто-то из местных жителей принял его за банкира в бегах и позвонил в ФБР.

Во время съёмок Дэмиэн Льюис был замечен в Сохо с книгой «Как некоторых людей можно безостановочно надувать. Краткое руководство». Написал её Дэвид Айнхорн, инвестор и менеджер хедж-фонда. Актёр читал её, готовясь к роли Бобби Аксельрода.

Съёмки сериала проходили в Бруклине, в Нью-Йорке, рядом с домом, где живёт актёр Пол Джаматти.

Вначале Американская киноассоциация присвоила фильму рейтинг R (лица, не достигшие 17-летнего возраста, допускаются на фильм только в сопровождении одного из родителей или законного представителя), но его перемонтировали, и рейтинг фильму сменили на PG (детям рекомендуется смотреть фильм с родителями).
Complete name : H:\Torrents\Video\Billions - Season 3 (AlexFilm) WEB-DL 1080p\Billions.s03e01.WEB-DL.1080p.Rus.Eng.AlexFilm.mkv
Format : Matroska
Format version : Version 4 / Version 2
File size : 2.55 GiB
Duration : 59 min 2 s
Overall bit rate mode : Variable
Overall bit rate : 6 187 kb/s
Encoded date : UTC 2018-04-05 05:32:15
Writing application : mkvmerge v6.1.0 ('Old Devil') built on Mar 4 2013 09:10:42
Writing library : libebml v1.3.0 + libmatroska v1.4.0

Video
ID : 1
Format : AVC
Format/Info : Advanced Video Codec
Format profile : High@L4
Format settings : CABAC / 4 Ref Frames
Format settings, CABAC : Yes
Format settings, ReFrames : 4 frames
Codec ID : V_MPEG4/ISO/AVC
Duration : 59 min 2 s
Bit rate mode : Variable
Bit rate : 5 168 kb/s
Maximum bit rate : 15.0 Mb/s
Width : 1 920 pixels
Height : 1 080 pixels
Display aspect ratio : 16:9
Frame rate mode : Constant
Frame rate : 23.976 (24000/1001) FPS
Color space : YUV
Chroma subsampling : 4:2:0
Bit depth : 8 bits
Scan type : Progressive
Bits/(Pixel*Frame) : 0.104
Stream size : 2.13 GiB (84%)
Default : Yes
Forced : No
Color range : Limited
Color primaries : BT.709
Transfer characteristics : BT.709
Matrix coefficients : BT.709

Audio #1
ID : 2
Format : AC-3
Format/Info : Audio Coding 3
Codec ID : A_AC3
Duration : 59 min 2 s
Bit rate mode : Constant
Bit rate : 448 kb/s
Channel(s) : 6 channels
Channel positions : Front: L C R, Side: L R, LFE
Sampling rate : 48.0 kHz
Frame rate : 31.250 FPS (1536 SPF)
Bit depth : 16 bits
Compression mode : Lossy
Stream size : 189 MiB (7%)
Title : DD 5.1 AlexFilm
Language : Russian
Service kind : Complete Main
Default : Yes
Forced : No

Audio #2
ID : 3
Format : AC-3
Format/Info : Audio Coding 3
Codec ID : A_AC3
Duration : 59 min 2 s
Bit rate mode : Constant
Bit rate : 448 kb/s
Channel(s) : 6 channels
Channel positions : Front: L C R, Side: L R, LFE
Sampling rate : 48.0 kHz
Frame rate : 31.250 FPS (1536 SPF)
Bit depth : 16 bits
Compression mode : Lossy
Stream size : 189 MiB (7%)
Title : Eng
Language : English
Service kind : Complete Main
Default : No
Forced : No
Когда раздача ведётся путём добавления новых серий, при каждом добавлении создётся новый торрент. Чтобы начать докачку новой серии, пользователям необходимо сделать следующее:

(1) остановить скачивание,

(2) удалить старый торрент у себя из клиента (старые серии удалять не надо),

(3) скачать новый торрент и запустить его у себя в клиенте вместо старого, при этом указать клиенту путь в старую папку, куда и должно происходить скачивание новых серий.

Ваш клиент при этом должен произвести хеширование (проверку) старой папки (если не производит сам - помогите ему сделать это), и будет докачивать только те серии, которых у вас ещё нет. Старые серии при этом не удаляются, а продолжают раздаваться!

Eсли вы уже удалили старые серии, то предотвратить повторную закачку старых серий можно, отжав галочку в соответсвующих местах при запуске нового торрента. По возможности, желательно не удалять старые серии как можно дольше, чтобы релизер не столько продолжал раздавать старые серии, а смог сконцентрироваться на новых.



Скачать Миллиарды.Billions.(Сезон.03).(Эми.Дж.Кауфман.Брайан.Коппельман.Дэвид.Левин).[2018.драма.WEB-DL].[1080p].[MVO].(AlexFilm).torrent без регистрации
Золото ЗОЛОТАЯ РАЗДАЧА! СКАЧАННОЕ НЕ ЗАСЧИТЫВАЕТСЯ! Золото
Дата: Зарегистрирован   [ Тип: внутренний ] Как тут cкачать?
MAGNET ссылка
MAGNET ссылка


Скачать .torrent

157 KB

Статус: проверено DHT
Скачан: торрент - 219 раз, раздача полностью - 3 раз
Размер: 31,02 GB
Оценка:  - (Голосов: 0)
Поблагодарили: 0
Поделиться ссылкой на эту раздачу с друзьями:
В контактеFacebookОдноклассникиTwitterLivejournalМой МирLiveinternet
 

 
Показать сообщения:    


Вы не можете начинать темы
Вы не можете отвечать на сообщения
Вы не можете редактировать свои сообщения
Вы не можете удалять свои сообщения
Вы не можете голосовать в опросах
Вы не можете прикреплять файлы к сообщениям
Вы можете скачивать файлы