Loading...
Error

Скачать Последний настоящий гангстер / The Last O.G (Сезон 01, серии 01-10 из 10) (Кристофер Чулак, Ларри Тенг, Иэн Тойнтон) [2018, Комедия, HDTVRip] [720p] [MVO] (Jaskier) + Original торрент без регистрации

Статистика раздачи
Размер:  5,67 GB   |    Скачан:  184 раза

Полного источника не было: 20 минут

 
 
 
Автор Сообщение

leon030982

[] 

Последний настоящий гангстер / The Last O.G
Год выпуска: 2018
Страна: США
Жанр: Комедия
Продолжительность: 00:25:00
Перевод: Профессиональный (многоголосый закадровый) | Jaskier

Режиссёр: Йорма Такконе

В ролях: Трэйси Морган, Тиффани Хэддиш, Седрик «Развлекатель», Аллен Мальдонадо, Райан Гол, Тейлор Мозби, Данте Хоагленд, Джоэль Марш Гарлэнд, Джино Венто, Дерек Гейнс

Описание: Когда человек творит опрометчивые и неверные поступки он ещё даже не подозревает, как это всё может повлиять на его дальнейшую жизнь, так как на примере произошло это с нашим героем. Трей в молодом возрасте попал в тюрьму, отсидев отрезок времени в пятнадцать лет он выходит с мест лишения свободы, за хорошее и исполнительное поведение. Он видит, как переменился его родимый район Нью-Йорка Бруклин, всё вокруг очень сильно поменялось, но это не все сюрпризы, которые ожидали парня. В юношестве, он встречался с девушкой, которая как оказалось, родила двух близнецов, но наш заключенный ничего не знал, что они появились на свет. Пока настоящий отец детей отсиживал срок, воспитанием и решением финансовых вопросов занимался нынешний муж Шей, за которого вскоре после того, как гангстера посадили, она вышла замуж. Как только реальный папа узнал о существовании бесценных детишек, он принимает меры по участию в их защите и обеспечению. Трейси был одушевлен, такой новостью, ведь для него это как лучики солнца в окошке. Теперь весь досуг ребят и самого мужчины очень изменится, ведь они приобрели родного папочку, а он своих драгоценных ребятишек. Наш герой вовсе не хочет возвращаться или совершать ошибки, которые были сделаны в молодости.



Качество: HDTV 720p
Формат: MKV
Видео: 1280x718 (16:9) | X264 | ~3142 kbps | 23.976 fps
Аудио 1: AC3, 48,0 КГц, 6 ch, 384 kbps - [RUS]
Аудио 2: AC3, 48,0 КГц, 6 ch, 384 kbps - [ENG]

Добавлена 10-я серия!
Переведено и озвучено: студией Jaskier
Общее
Уникальный идентификатор                 : 183646453877360137091445574233469182719 (0x8A29053D8A8A1A3F65F8DE28A72B62FF)
Полное имя                               : F:\Jaskier\The.Last.O.G Season 1 (HDTV l 720p l Jaskier)\The.Last.O.G.S01E01.HDTV.720p.Jaskier.mkv
Формат                                   : Matroska
Версия формата                           : Version 4 / Version 2
Размер файла                             : 598 Мбайт
Продолжительность                        : 21 м. 22 с.
Общий поток                              : 3913 Кбит/сек
Дата кодирования                         : UTC 2018-04-05 19:33:03
Программа кодирования                    : mkvmerge v19.0.0 ('Brave Captain') 64-bit
Библиотека кодирования                   : libebml v1.3.5 + libmatroska v1.4.8

Видео
Идентификатор                            : 1
Формат                                   : AVC
Формат/Информация                        : Advanced Video Codec
Профиль формата                          : High@L4.1
Настройки формата                        : CABAC / 5 Ref Frames
Параметр CABAC формата                   : Да
Параметр RefFrames формата               : 5 кадров
Идентификатор кодека                     : V_MPEG4/ISO/AVC
Продолжительность                        : 21 м. 22 с.
Битрейт                                  : 3142 Кбит/сек
Ширина                                   : 1280 пикселей
Высота                                   : 718 пикселей
Соотношение сторон                       : 16:9
Режим частоты кадров                     : Постоянный
Частота кадров                           : 23,976 (24000/1001) кадра/сек
Цветовое пространство                    : YUV
Субдискретизация насыщенности            : 4:2:0
Битовая глубина                          : 8 бит
Тип развёртки                            : Прогрессивная
Бит/(Пиксели*Кадры)                      : 0.143
Размер потока                            : 480 Мбайт (80%)
Библиотека кодирования                   : x264 core 155 r2901 7d0ff22
Настройки программы                      : cabac=1 / ref=5 / deblock=1:0:0 / analyse=0x3:0x113 / me=hex / subme=8 / psy=1 / psy_rd=1.00:0.00 / mixed_ref=1 / me_range=16 / chroma_me=1 / trellis=2 / 8x8dct=1 / cqm=0 / deadzone=21,11 / fast_pskip=1 / chroma_qp_offset=-2 / threads=22 / lookahead_threads=3 / sliced_threads=0 / nr=0 / decimate=1 / interlaced=0 / bluray_compat=0 / constrained_intra=0 / bframes=3 / b_pyramid=2 / b_adapt=1 / b_bias=0 / direct=3 / weightb=1 / open_gop=0 / weightp=2 / keyint=250 / keyint_min=23 / scenecut=40 / intra_refresh=0 / rc_lookahead=50 / rc=crf / mbtree=1 / crf=18.0 / qcomp=0.60 / qpmin=0 / qpmax=69 / qpstep=4 / ip_ratio=1.40 / aq=1:1.00
Язык                                     : English
Default                                  : Да
Forced                                   : Нет
Цветовой диапазон                        : Limited
Коэффициенты матрицы                     : BT.709

Аудио #1
Идентификатор                            : 2
Формат                                   : AC-3
Формат/Информация                        : Audio Coding 3
Идентификатор кодека                     : A_AC3
Продолжительность                        : 21 м. 22 с.
Вид битрейта                             : Постоянный
Битрейт                                  : 384 Кбит/сек
Каналы                                   : 6 каналов
Расположение каналов                     : Front: L C R, Side: L R, LFE
Частота                                  : 48,0 КГц
Частота кадров                           : 31,250 кадров/сек (1536 SPF)
Битовая глубина                          : 16 бит
Метод сжатия                             : С потерями
Размер потока                            : 58,7 Мбайт (10%)
Заголовок                                : Jaskier
Язык                                     : Russian
ServiceKind/String                       : Complete Main
Default                                  : Да
Forced                                   : Нет

Аудио #2
Идентификатор                            : 3
Формат                                   : AC-3
Формат/Информация                        : Audio Coding 3
Идентификатор кодека                     : A_AC3
Продолжительность                        : 21 м. 22 с.
Вид битрейта                             : Постоянный
Битрейт                                  : 384 Кбит/сек
Каналы                                   : 6 каналов
Расположение каналов                     : Front: L C R, Side: L R, LFE
Частота                                  : 48,0 КГц
Частота кадров                           : 31,250 кадров/сек (1536 SPF)
Битовая глубина                          : 16 бит
Метод сжатия                             : С потерями
Размер потока                            : 58,7 Мбайт (10%)
Язык                                     : English
ServiceKind/String                       : Complete Main
Default                                  : Нет
Forced                                   : Нет
Когда раздача ведётся путём добавления новых серий, при каждом добавлении создётся новый торрент. Чтобы начать докачку новой серии, пользователям необходимо сделать следующее:
(1) остановить скачивание,
(2) удалить старый торрент у себя из клиента (старые серии удалять не надо),
(3) скачать новый торрент и запустить его у себя в клиенте вместо старого, при этом указать клиенту путь в старую папку, куда и должно происходить скачивание новых серий.
Ваш клиент при этом должен произвести хеширование (проверку) старой папки (если не производит сам - помогите ему сделать это), и будет докачивать только те серии, которых у вас ещё нет. Старые серии при этом не удаляются, а продолжают раздаваться!
Eсли вы уже удалили старые серии, то предотвратить повторную закачку старых серий можно, отжав галочку в соответсвующих местах при запуске нового торрента. По возможности, желательно не удалять старые серии как можно дольше, чтобы релизёр не столько продолжал раздавать старые серии, а смог сконцентрироваться на новых.



Скачать Последний.настоящий.гангстер.The.Last.O.G.(Сезон.01.серии.01-10.из.10).(Кристофер.Чулак.Ларри.Тенг.Иэн.Тойнтон).[2018.Комедия.HDTVRip].[720p].[MVO].(Jaskier).+.Original.torrent без регистрации
Золото ЗОЛОТАЯ РАЗДАЧА! СКАЧАННОЕ НЕ ЗАСЧИТЫВАЕТСЯ! Золото
Дата: Зарегистрирован   [ Тип: внутренний ] Как тут cкачать?
MAGNET ссылка
MAGNET ссылка


Скачать .torrent

30 KB

Статус: проверено DHT
Скачан: торрент - 184 раз, раздача полностью - 5 раз
Размер: 5,67 GB
Оценка:  - (Голосов: 0)
Поблагодарили: 1
Поделиться ссылкой на эту раздачу с друзьями:
В контактеFacebookОдноклассникиTwitterLivejournalМой МирLiveinternet
 

 
Показать сообщения:    


Вы не можете начинать темы
Вы не можете отвечать на сообщения
Вы не можете редактировать свои сообщения
Вы не можете удалять свои сообщения
Вы не можете голосовать в опросах
Вы не можете прикреплять файлы к сообщениям
Вы можете скачивать файлы