Loading...
Error

Скачать Комендантский час (Правила рукопашного боя) / Martial Law (1990, боевик, криминал, BDRip] [1080p] 2x[MVO (R5, ТВЦ)] + [AVO (Вартан Дохалов)] [R.G. Goldenshara] торрент без регистрации

Статистика раздачи
Размер:  4,37 GB   |    Скачан:  75 раз
Сидов:  1  [  0 KB/s  ]  
 
 
 
Автор Сообщение

sobmaster

[] 



Комендантский час (Правила рукопашного боя)
Martial Law




Год выпуска: 1990
Страна: США
Выпущено: Image Organization, Lance Entertainment, Pierre David Entertainment, Westwind Productions Inc.
Слоган: «Сила справедливости в их руках!»
Жанр: боевик, криминал

Продолжительность: 01:28:50
Перевод #1: Профессиональный (многоголосый, закадровый) (R5)
Перевод #2: Профессиональный (многоголосый, закадровый) (ТВЦ)
Перевод #3: Авторский (одноголосый, закадровый) (Вартан Дохалов)
Режиссер: Стив Коэн
Сценарий: Ричард Брандес
Продюсер: Курт Андерсон, Ричард Брандес, Пьер Дэвид
Оператор: Джон Хьюнек
Композитор: Эллиот Соломон
Художник: Джеймс Р. Шумакер, Тесс Диганджи
Монтаж: Майкл Тибо
В ролях:


Чэд МакКуин (Sean Thompson), Синтия Ротрок (Billie Blake), Дэвид Кэрредин (Dalton Rhodes), Энди МакКатчен (Michael Thompson), Филип Тан (Wu Han), Тони Лонго (Booker), Винсент Крэйг Дюпри (Faster Brown), Ларс Лунгрен (Ruppin), Профессор Тору Танака (Jimmy Kong), Джон Фудзиока (Chang), Крэйг ЭнДжи (Tong Leader), Бенни Уркидез (Tong Member), Джеймс Лью (Tong Member), Джефф Прюитт (Johnson)
Мировая премьера: 16 мая 1991
MPAA: - Лицам до 17 лет обязательно присутствие взрослого

Описание: Офицеру полиции Шону Томпсону, который два года прожил в Гонконге, предстоит расследовать убийство брата Майкла, зарабатывавшего на жизнь угоном дорогих автомобилей. В расследовании ему поможет напарница и, по-совместительству, любовница Билли Блейк, как и Шон, мастерски владеющая кунг-фу…


Качество: BDRip 1080p
Контейнер: MKV
Видео: AVC, 1920x1080 (16:9), 6469 kbps, 23.976 fps, 0.130 bpp
Аудио #1: русский /; AC3 /; 2.0 /; 48 kHz /; 192 kbps /; 16 bit; || MVO (R5)
Аудио #2: русский /; AC3 /; 2.0 /; 48 kHz /; 192 kbps /; 16 bit; || MVO (ТВЦ)
Аудио #3: русский /; AC3 /; 2.0 /; 48 kHz /; 192 kbps /; 16 bit; || AVO (Вартан Дохалов)
Субтитры: русские

АНОНСЫ ПОПУЛЯРНЫХ РАЗДАЧ

Код:

General
Unique ID                                : 193658334557424159043628733748024236407 (0x91B13D11A4194893867314909074D977)
Complete name                            : E:\Мои рипы\Комендантский час.1990.BDRip.1080p.2xMVO+AVO.mkv
Format                                   : Matroska
Format version                           : Version 4 / Version 2
File size                                : 4.37 GiB
Duration                                 : 1h 28mn
Overall bit rate                         : 7 048 Kbps
Encoded date                             : UTC 2018-04-07 22:35:32
Writing application                      : mkvmerge v6.8.0 ('Theme for Great Cities') 64bit built on Mar  2 2014 21:34:26
Writing library                          : libebml v1.3.0 + libmatroska v1.4.1

Video
ID                                       : 1
Format                                   : AVC
Format/Info                              : Advanced Video Codec
Format profile                           : High@L4.1
Format settings, CABAC                   : Yes
Format settings, ReFrames                : 4 frames
Codec ID                                 : V_MPEG4/ISO/AVC
Duration                                 : 1h 28mn
Bit rate                                 : 6 469 Kbps
Width                                    : 1 920 pixels
Height                                   : 1 080 pixels
Display aspect ratio                     : 16:9
Frame rate mode                          : Constant
Frame rate                               : 23.976 fps
Color space                              : YUV
Chroma subsampling                       : 4:2:0
Bit depth                                : 8 bits
Scan type                                : Progressive
Bits/(Pixel*Frame)                       : 0.130
Stream size                              : 3.93 GiB (90%)
Writing library                          : x264 core 146 r2538 121396c
Encoding settings                        : cabac=1 / ref=4 / deblock=1:-3:-3 / analyse=0x3:0x113 / me=umh / subme=11 / psy=1 / psy_rd=1.00:0.15 / mixed_ref=1 / me_range=48 / chroma_me=1 / trellis=2 / 8x8dct=1 / cqm=0 / deadzone=21,11 / fast_pskip=0 / chroma_qp_offset=-4 / threads=6 / lookahead_threads=1 / sliced_threads=0 / nr=0 / decimate=0 / interlaced=0 / bluray_compat=0 / constrained_intra=0 / bframes=8 / b_pyramid=2 / b_adapt=2 / b_bias=0 / direct=2 / weightb=1 / open_gop=0 / weightp=2 / keyint=250 / keyint_min=23 / scenecut=40 / intra_refresh=0 / rc_lookahead=50 / rc=2pass / mbtree=0 / bitrate=6469 / ratetol=1.0 / qcomp=0.60 / qpmin=0 / qpmax=69 / qpstep=4 / cplxblur=20.0 / qblur=0.5 / vbv_maxrate=14000 / vbv_bufsize=14000 / nal_hrd=none / filler=0 / ip_ratio=1.40 / pb_ratio=1.30 / aq=2:1.00
Language                                 : English
Default                                  : Yes
Forced                                   : No
Color primaries                          : Generic film
Matrix coefficients                      : YCgCo

Audio #1
ID                                       : 2
Format                                   : AC-3
Format/Info                              : Audio Coding 3
Mode extension                           : CM (complete main)
Format settings, Endianness              : Big
Codec ID                                 : A_AC3
Duration                                 : 1h 28mn
Bit rate mode                            : Constant
Bit rate                                 : 192 Kbps
Channel(s)                               : 2 channels
Channel positions                        : Front: L R
Sampling rate                            : 48.0 KHz
Bit depth                                : 16 bits
Compression mode                         : Lossy
Stream size                              : 122 MiB (3%)
Title                                    : MVO (R5)
Language                                 : Russian
Default                                  : Yes
Forced                                   : No

Audio #2
ID                                       : 3
Format                                   : AC-3
Format/Info                              : Audio Coding 3
Mode extension                           : CM (complete main)
Format settings, Endianness              : Big
Codec ID                                 : A_AC3
Duration                                 : 1h 28mn
Bit rate mode                            : Constant
Bit rate                                 : 192 Kbps
Channel(s)                               : 2 channels
Channel positions                        : Front: L R
Sampling rate                            : 48.0 KHz
Bit depth                                : 16 bits
Compression mode                         : Lossy
Stream size                              : 122 MiB (3%)
Title                                    : MVO (ТВЦ)
Language                                 : Russian
Default                                  : No
Forced                                   : No

Audio #3
ID                                       : 4
Format                                   : AC-3
Format/Info                              : Audio Coding 3
Mode extension                           : CM (complete main)
Format settings, Endianness              : Big
Codec ID                                 : A_AC3
Duration                                 : 1h 28mn
Bit rate mode                            : Constant
Bit rate                                 : 192 Kbps
Channel(s)                               : 2 channels
Channel positions                        : Front: L R
Sampling rate                            : 48.0 KHz
Bit depth                                : 16 bits
Compression mode                         : Lossy
Stream size                              : 122 MiB (3%)
Title                                    : AVO (Вартан Дохалов)
Language                                 : Russian
Default                                  : No
Forced                                   : No

Text
ID                                       : 5
Format                                   : UTF-8
Codec ID                                 : S_TEXT/UTF8
Codec ID/Info                            : UTF-8 Plain Text
Language                                 : Russian
Default                                  : No
Forced                                   : No


Раздаю ночью с 0.00 до 7.00 до 5 скачавших. На раздачи не возвращаюсь.





Скачать Комендантский.час.(Правила.рукопашного.боя).Martial.Law.(1990.боевик.криминал.BDRip].[1080p].2x[MVO.(R5.ТВЦ)].+.[AVO.(Вартан.Дохалов)].[R.G.Goldenshara].torrent без регистрации
Золото ЗОЛОТАЯ РАЗДАЧА! СКАЧАННОЕ НЕ ЗАСЧИТЫВАЕТСЯ! Золото
Дата: Зарегистрирован   [ Тип: внутренний ] Как тут cкачать?
MAGNET ссылка
MAGNET ссылка


Скачать .torrent

11 KB

Статус: проверено DHT
Скачан: торрент - 75 раз, раздача полностью - 19 раз
Размер: 4,37 GB
Оценка:  5 (Голосов: 4)
Поблагодарили: 6
Поделиться ссылкой на эту раздачу с друзьями:
В контактеFacebookОдноклассникиTwitterLivejournalМой МирLiveinternet
 

 
Показать сообщения:    


Вы не можете начинать темы
Вы не можете отвечать на сообщения
Вы не можете редактировать свои сообщения
Вы не можете удалять свои сообщения
Вы не можете голосовать в опросах
Вы не можете прикреплять файлы к сообщениям
Вы можете скачивать файлы