Loading...
Error

Скачать Убивая Еву / Killing Eve (Сезон 01) (Джон Ист) [2018, Триллер, WEB-DL 720p] [MVO] (NewStudio) + [Original] + [Subs] (Rus, Eng) торрент без регистрации

Статистика раздачи
Размер:  8,17 GB   |    Скачан:  88 раз

Полного источника не было: 21 минута

 
 
 
Автор Сообщение

leon030982

[] 

Убивая Еву | Killing Eve
Производство: США
Год выпуска: 2018
Жанр: Триллер
Продолжительность: ~ 00:43:00 серия
Перевод: Профессиональный (многоголосый закадровый) |NewStudio|

Режиссер: Джон Ист, Дэймон Томас, Гарри Брэдбир

В ролях: Сандра О, Джоди Комер, Фиона Шоу, Ким Бодния, Оуэн МакДоннел, Кирби Хауэлл-Баптисте, Шон Делани, Даррен Бойд, Хелена Холмс, Дэвид Агранов

Описание:

Проект, в основу которого легли романы Люка Дженнингса, повествует о наёмной убийце-психопатке Вилланелле и охотящейся на неё Еве — сотруднице службы безопасности, давно мечтавшей поменять бумажную работу на оперативную. Так начинается смертельно опасная, полная юмора и экшена игра в кошки-мышки между элегантной, талантливой убийцей и смышлёной оперативницей — обе женщины равно умны и одинаково одержимы друг другом.



Качество видео: WEBDL 720p
Формат: MKV
Видео: AVC, 1280 x 718 (1.783), 23.976 fps, 4095 Кбит/сек
Аудио Rus: AC-3, 48 kHz, 6 ch, 384 kbps |NewStudio|
Аудио Eng: AC-3, 48 kHz, 6 ch, 384 kbps |Original|
Субтитры: Русские (форсированные), английские
Реклама: отсутствует
Общее
Уникальный идентификатор : 176120133382714594805896990292035884257 (0x847F80FD9122CBEEFF4D03FF7279D4E1)
Полное имя : E:\_Сериалы\_Сериалы\Убивая Еву\Killing.Eve.s01.WEBDL.720p.NewStudio\Killing.Eve.s01e01.WEBDL.720p.NewStudio.mkv
Формат : Matroska
Версия формата : Version 4 / Version 2
Размер файла : 1,49 Гбайт
Продолжительность : 43 м. 53 с.
Общий поток : 4865 Кбит/сек
Дата кодирования : UTC 2018-04-15 18:42:14
Программа кодирования : mkvmerge v22.0.0 ('At The End Of The World') 64-bit
Библиотека кодирования : libebml v1.3.5 + libmatroska v1.4.8

Видео
Идентификатор : 1
Формат : AVC
Формат/Информация : Advanced Video Codec
Профиль формата : High@L3.1
Настройки формата : 2 Ref Frames
Параметр CABAC формата : Нет
Параметр RefFrames формата : 2 кадра
Идентификатор кодека : V_MPEG4/ISO/AVC
Продолжительность : 43 м. 53 с.
Битрейт : 4095 Кбит/сек
Ширина : 1280 пикселей
Высота : 718 пикселей
Соотношение сторон : 16:9
Режим частоты кадров : Постоянный
Частота кадров : 23,976 (23976/1000) кадра/сек
Цветовое пространство : YUV
Субдискретизация насыщенности : 4:2:0
Битовая глубина : 8 бит
Тип развёртки : Прогрессивная
Бит/(Пиксели*Кадры) : 0.186
Размер потока : 1,26 Гбайт (84%)
Язык : English
Default : Да
Forced : Нет
Цветовой диапазон : Limited
Основные цвета : BT.709
Характеристики трансфера : BT.709
Коэффициенты матрицы : BT.709

Аудио #1
Идентификатор : 2
Формат : AC-3
Формат/Информация : Audio Coding 3
Идентификатор кодека : A_AC3
Продолжительность : 43 м. 53 с.
Вид битрейта : Постоянный
Битрейт : 384 Кбит/сек
Каналы : 6 каналов
Расположение каналов : Front: L C R, Side: L R, LFE
Частота : 48,0 КГц
Частота кадров : 31,250 кадров/сек (1536 SPF)
Битовая глубина : 16 бит
Метод сжатия : С потерями
Размер потока : 121 Мбайт (8%)
Язык : Russian
ServiceKind/String : Complete Main
Default : Да
Forced : Нет

Аудио #2
Идентификатор : 3
Формат : AC-3
Формат/Информация : Audio Coding 3
Идентификатор кодека : A_AC3
Продолжительность : 43 м. 53 с.
Вид битрейта : Постоянный
Битрейт : 384 Кбит/сек
Каналы : 6 каналов
Расположение каналов : Front: L C R, Side: L R, LFE
Частота : 48,0 КГц
Частота кадров : 31,250 кадров/сек (1536 SPF)
Битовая глубина : 16 бит
Метод сжатия : С потерями
Размер потока : 121 Мбайт (8%)
Язык : English
ServiceKind/String : Complete Main
Default : Нет
Forced : Нет

Текст #1
Идентификатор : 4
Формат : ASS
Идентификатор кодека : S_TEXT/ASS
Идентификатор кодека/Информация : Advanced Sub Station Alpha
Продолжительность : 43 м. 29 с.
Битрейт : 1 бит/сек
ElementCount : 13
Метод сжатия : Без потерь
Размер потока : 581 байт (0%)
Язык : Russian
Default : Да
Forced : Нет

Текст #2
Идентификатор : 5
Формат : UTF-8
Идентификатор кодека : S_TEXT/UTF8
Идентификатор кодека/Информация : UTF-8 Plain Text
Продолжительность : 43 м. 20 с.
Битрейт : 57 бит/сек
ElementCount : 626
Размер потока : 18,3 Кбайт (0%)
Язык : English
Default : Нет
Forced : Нет
Раздача ведётся путём добавления новых серий; при каждом добавлении создаётся новый торрент.
Чтобы начать докачку новой серии, пользователям необходимо сделать следующее:
1. остановить скачивание,
2. удалить старый торрент у себя из клиента (старые серии удалять не надо),
3. скачать новый торрент и запустить его у себя в клиенте вместо старого, при этом указать клиенту путь в старую папку, куда и должно происходить скачивание новых серий.

Ваш клиент при этом должен произвести хеширование (проверку) старой папки (если не производит сам - помогите ему сделать это), и будет докачивать только те серии которых у вас ещё нет. Старые серии при этом не удаляются, а продолжают раздаваться!

Eсли вы уже удалили старые серии, то предотвратить повторную закачку старых серий можно, отжав галочку в соответствующих местах при запуске нового торрента. По возможности, желательно не удалять старые серии как можно дольше, чтобы релизёр не столько продолжал раздавать старые серии, а смог сконцентрироваться на новых.

Совет для тех, кто не хочет ждать перехеширования:
Создайте ещё одну папку рядом с папкой сериала (рядом, а не в ней!!!). Каждую новую серию после удачной загрузки копируйте в новую папку так чтобы ваша основная папка всегда была пуста. Когда ваш новый торрент предложит вам закачать все файлы, выберете только последнюю. Для сидирования же укажите адрес новой папки.

Как закачать отдельный файл из торрента или докачать ранее пропущенные файлы торрента!
1. Открыть торрент
2. Снять галки с тех файлов торрента, которые мы не хотим закачивать. Оставляем только на нужных нам файлах (файле).
3. Нажать О.К.

В клиенте utorrent

Инструкция

1) Открыть торрент


2) Снять галки с тех файлов торрента, которые мы не хотим закачивать:

* либо вручную, снимая с каждого файла галку( скрин №1)
* либо, нажав кнопку "Снять метки (Select None)", сняв сразу со всех файлов(скрин №2)
№1

№2

Оставляем только на нужных нам файлах (файле).

3)Нажать О.К
Приятного просмотра!!!



Скачать Убивая.Еву.Killing.Eve.(Сезон.01).(Джон.Ист).[2018.Триллер.WEB-DL.720p].[MVO].(NewStudio).+.[Original].+.[Subs].(Rus.Eng).torrent без регистрации
Золото ЗОЛОТАЯ РАЗДАЧА! СКАЧАННОЕ НЕ ЗАСЧИТЫВАЕТСЯ! Золото
Дата: Зарегистрирован   [ Тип: внутренний ] Как тут cкачать?
MAGNET ссылка
MAGNET ссылка


Скачать .torrent

22 KB

Статус: проверено DHT
Скачан: торрент - 88 раз, раздача полностью - 8 раз
Размер: 8,17 GB
Оценка:  - (Голосов: 0)
Поблагодарили: 0
Поделиться ссылкой на эту раздачу с друзьями:
В контактеFacebookОдноклассникиTwitterLivejournalМой МирLiveinternet
 

 
Показать сообщения:    


Вы не можете начинать темы
Вы не можете отвечать на сообщения
Вы не можете редактировать свои сообщения
Вы не можете удалять свои сообщения
Вы не можете голосовать в опросах
Вы не можете прикреплять файлы к сообщениям
Вы можете скачивать файлы