Loading...
Error

Скачать Короче / Downsizing (Александр Пэйн) [2017, Фантастика, драма, комедия, BDRip][1080p] [DUB Лицензия] [R.G. GoldenShara] торрент без регистрации

Статистика раздачи
Размер:  4,37 GB   |    Скачан:  146 раз
Сидов:  4  [  0 KB/s  ]  
 
 
 
Автор Сообщение

Magnetto83

[] 


Короче / Downsizing


Год выпуска: 2017
Выпущено: США | Paramount Pictures
Жанр: Фантастика, драма, комедия
Продолжительность: 02:15:20
Перевод: Профессиональный (полное дублирование) | Blu-ray CEE |
Субтитры: Русские(Форс.+полные), Английские (Full+SHD+SHD Colored)
Навигация по главам: Сохранены оригинальные главы как на Blu-ray

Слоган: «Мы созданы для большего»

Режиссер: Александр Пэйн

В ролях: Мэтт Дэймон, Кристоф Вальц, Хонг Чау, Кристен Уиг, Рольф Лассгорд, Ингьерд Эгеберг, Удо Кир, Сёрен Пильмарк, Джейн Ходишелл, Джейсон Судейкис

Описание: Фантастическая история о неожиданном решении проблемы перенаселения планеты: норвежские ученые придумывают технологию по уменьшению людей, благодаря которой через 200 лет весь мир можно сделать миниатюрным. К тому же мини-жизнь предлагает массу финансовых выгод, так что простой парень Пол и его жена Одри, недолго думая, решают оставить свое унылое существование в Омахе и пройти процедуру уменьшения. Это их решение повлечет за собой самые удивительные последствия.



Возраст: 18+ (зрителям, достигшим 18 лет. запрещено для детей)
Рейтинг MPAA: R (лицам до 17 лет обязательно присутствие взрослого)

Качество: BDRip 1080p
Формат: MKV
Видео кодек: H.264
Аудио кодек: AC3
Видео: 1920x804 (2.40:1), 5041 Кбит/с, 23.976 fps
Аудио: Русский Dolby Digital 5.1 (448 Кбит/с)


x264 [info]: frame I:1188 Avg QP:19.79 size:148751
x264 [info]: frame P:37255 Avg QP:22.29 size: 43403
x264 [info]: frame B:156251 Avg QP:24.39 size: 15599
x264 [info]: consecutive B-frames: 1.1% 1.1% 7.1% 7.4% 13.0% 59.5% 5.0% 2.8% 3.0%
x264 [total]: encoded 194694 frames, 1.37 fps, 4168.35 kb/s



General
Complete name : G:\Видео\Мои Рипы 1080p\Кино-Хиты 2017\Короче 2017 Dub Rus BDRip 1080p.mkv
Format : Matroska
Format version : Version 2
File size : 4.37 GiB
Duration : 2h 15mn
Overall bit rate : 4 619 Kbps
Movie name : Короче 2017 Dub Rus BDRip 1080p By R.G. GoldenShara
Encoded date : UTC 2018-03-23 10:59:37
Writing application : mkvmerge v5.2.0 ('I can't explain') built on Dec 18 2011 18:12:03
Writing library : libebml v1.2.3 + libmatroska v1.3.0
Attachements : Cover

Video
ID : 1
Format : AVC
Format/Info : Advanced Video Codec
Format profile : High@L4.1
Format settings, CABAC : Yes
Format settings, ReFrames : 5 frames
Codec ID : V_MPEG4/ISO/AVC
Duration : 2h 15mn
Bit rate : 4 171 Kbps
Width : 1 920 pixels
Height : 804 pixels
Display aspect ratio : 2.40:1
Frame rate mode : Constant
Frame rate : 23.976 fps
Color space : YUV
Chroma subsampling : 4:2:0
Bit depth : 8 bits
Scan type : Progressive
Bits/(Pixel*Frame) : 0.113
Stream size : 3.86 GiB (88%)
Title : Короче 2017 BDRip 1080p By Magnetto 83
Writing library : x264 core 146 r2538 121396c
Encoding settings : cabac=1 / ref=5 / deblock=1:-1:-1 / analyse=0x3:0x113 / me=umh / subme=10 / psy=1 / psy_rd=1.00:0.00 / mixed_ref=1 / me_range=32 / chroma_me=1 / trellis=2 / 8x8dct=1 / cqm=0 / deadzone=21,11 / fast_pskip=0 / chroma_qp_offset=-2 / threads=3 / lookahead_threads=1 / sliced_threads=0 / nr=0 / decimate=1 / interlaced=0 / bluray_compat=0 / constrained_intra=0 / bframes=8 / b_pyramid=2 / b_adapt=2 / b_bias=0 / direct=3 / weightb=1 / open_gop=0 / weightp=2 / keyint=250 / keyint_min=23 / scenecut=40 / intra_refresh=0 / rc=2pass / mbtree=0 / bitrate=4171 / ratetol=1.0 / qcomp=0.60 / qpmin=0 / qpmax=69 / qpstep=4 / cplxblur=20.0 / qblur=0.5 / ip_ratio=1.40 / pb_ratio=1.30 / aq=2:1.00
Language : English
Default : Yes
Forced : No

Audio
ID : 2
Format : AC-3
Format/Info : Audio Coding 3
Mode extension : CM (complete main)
Format settings, Endianness : Big
Codec ID : A_AC3
Duration : 2h 15mn
Bit rate mode : Constant
Bit rate : 448 Kbps
Channel(s) : 6 channels
Channel positions : Front: L C R, Side: L R, LFE
Sampling rate : 48.0 KHz
Compression mode : Lossy
Stream size : 434 MiB (10%)
Title : DD 5.1 @448 Kbps - Дубляж | Blu-ray CEE |
Language : Russian
Default : Yes
Forced : No

Text #1
ID : 3
Format : UTF-8
Codec ID : S_TEXT/UTF8
Codec ID/Info : UTF-8 Plain Text
Title : Форс.
Language : Russian
Default : Yes
Forced : No

Text #2
ID : 4
Format : UTF-8
Codec ID : S_TEXT/UTF8
Codec ID/Info : UTF-8 Plain Text
Title : Полные
Language : Russian
Default : No
Forced : No

Text #3
ID : 5
Format : UTF-8
Codec ID : S_TEXT/UTF8
Codec ID/Info : UTF-8 Plain Text
Title : Full
Language : English
Default : No
Forced : No

Text #4
ID : 6
Format : UTF-8
Codec ID : S_TEXT/UTF8
Codec ID/Info : UTF-8 Plain Text
Title : SDH
Language : English
Default : No
Forced : No

Text #5
ID : 7
Format : UTF-8
Codec ID : S_TEXT/UTF8
Codec ID/Info : UTF-8 Plain Text
Title : SDH Colored
Language : English
Default : No
Forced : No

Menu
00:00:00.000 : en:Chapter 01
00:06:13.539 : en:Chapter 02
00:10:38.346 : en:Chapter 03
00:16:24.483 : en:Chapter 04
00:22:14.666 : en:Chapter 05
00:30:23.905 : en:Chapter 06
00:38:44.363 : en:Chapter 07
00:42:38.597 : en:Chapter 08
00:47:36.687 : en:Chapter 09
00:55:08.722 : en:Chapter 10
01:04:35.830 : en:Chapter 11
01:13:11.595 : en:Chapter 12
01:21:13.201 : en:Chapter 13
01:28:00.775 : en:Chapter 14
01:33:25.308 : en:Chapter 15
01:41:42.513 : en:Chapter 16
01:44:11.870 : en:Chapter 17
01:51:54.374 : en:Chapter 18
01:58:36.442 : en:Chapter 19
02:08:58.856 : en:Chapter 20







Скачать Короче.Downsizing.(Александр.Пэйн).[2017.Фантастика.драма.комедия.BDRip][1080p].[DUB.Лицензия].[R.G.GoldenShara].torrent без регистрации
Золото ЗОЛОТАЯ РАЗДАЧА! СКАЧАННОЕ НЕ ЗАСЧИТЫВАЕТСЯ! Золото
Дата: Зарегистрирован   [ Тип: внутренний ] Как тут cкачать?
MAGNET ссылка
MAGNET ссылка


Скачать .torrent

11 KB

Статус: проверено
Скачан: торрент - 146 раз, раздача полностью - 93 раз
Размер: 4,37 GB
Оценка:  5 (Голосов: 7)
Поблагодарили: 12
Поделиться ссылкой на эту раздачу с друзьями:
В контактеFacebookОдноклассникиTwitterLivejournalМой МирLiveinternet
 

 
Показать сообщения:    


Вы не можете начинать темы
Вы не можете отвечать на сообщения
Вы не можете редактировать свои сообщения
Вы не можете удалять свои сообщения
Вы не можете голосовать в опросах
Вы не можете прикреплять файлы к сообщениям
Вы можете скачивать файлы