Loading...
Error

Скачать Красный воробей / Red Sparrow (Френсис Лоуренс) [2018, триллер, детектив, Blu-Ray Remux 1080p] 2x[DUB] (Rus, Ukr) [Лицензия] + [MVO] (HDRezka Studio) торрент без регистрации

Статистика раздачи
Размер:  27,59 GB   |    Скачан:  392 раза
Сидов:  2  [  0 KB/s  ]  
 
 
 
Автор Сообщение

leon030982

[] 

Красный воробей / Red Sparrow


Год выпуска: 2018
Страна: США
Жанр: триллер, детектив
Продолжительность: 02:22:21
Перевод 1: Дубляж [Лицензия]
Перевод 2: Украинский (дубляж) [Лицензия]
Перевод 3: Профессиональный (многоголосый) HDRezka Studio

Режиссер: Френсис Лоуренс

В ролях: Дженнифер Лоуренс, Джоэл Эдгертон, Маттиас Шонартс, Шарлотта Рэмплинг, Мэри-Луиз Паркер, Киран Хайндс, Джоэли Ричардсон, Билл Кэмп, Джереми Айронс, Текла Рютен

Описание: После вынужденного окончания карьеры из-за профессиональной травмы Доминика Егорова и ее мать сталкиваются с мрачным и неопределенным будущим. Героиня соглашается стать рекрутом в Школе Воробьев, секретной службе, которая обучает уникальных молодых людей использовать свое тело и ум в качестве опаснейшего оружия. После долгого садистского обучения девушка превращается в самого опасного Воробья за всю историю секретной службы. Теперь бывшая балерина должна примирить в себе человека, которым она была, и силу, которой она овладела, со своей собственной жизнью и жизнью всех, кто ей дорог. В том числе, американского агента ЦРУ, пытающегося убедить ее, что он единственный человек, которому она может доверять.



Качество: Blu-Ray Remux 1080p
Формат: MKV
Видео: MPEG-4 AVC, 21.9 Mбит/с, 1920x1080
Аудио: #1: (DTS, 6 ch, 768 Кбит/с) - Дублированное [Лицензия]
Аудио:#2: (AC3, 6 ch, 448 Кбит/с) - Дублированное [Лицензия]
Аудио:#3: (AC3, 2 ch, 192 Кбит/с) - Профессиональное многоголосое [HDRezka Studio]
Аудио:#4: английский (DTS-HD MA, 8 ch, 4399 Кбит/с)
Субтитры: Русские (полные, 2 вида), английские

Торент обновлен! Лицензия
General
Unique ID : 232840044721107944624330838490195947163 (0xAF2B5C8734D06D70BCC215D642E7EE9B)
Complete name : C:\Video111\Red.Sparrow.2018.Lic.BDREMUX.1080p.ExKinoRay.mkv
Format : Matroska
Format version : Version 4 / Version 2
File size : 27.6 GiB
Duration : 2 h 20 min
Overall bit rate mode : Variable
Overall bit rate : 28.2 Mb/s
Movie name : Red Sparrow 2018 from ExKinoRay
Encoded date : UTC 2018-05-12 07:20:30
Writing application : mkvmerge v7.3.0 ('Nouages') 64bit built on Oct 22 2014 18:53:34
Writing library : libebml v1.3.0 + libmatroska v1.4.1

Video
ID : 1
Format : AVC
Format/Info : Advanced Video Codec
Format profile : High@L4.1
Format settings : CABAC / 4 Ref Frames
Format settings, CABAC : Yes
Format settings, ReFrames : 4 frames
Codec ID : V_MPEG4/ISO/AVC
Duration : 2 h 20 min
Bit rate mode : Variable
Bit rate : 21.9 Mb/s
Maximum bit rate : 31.0 Mb/s
Width : 1 920 pixels
Height : 1 080 pixels
Display aspect ratio : 16:9
Frame rate mode : Constant
Frame rate : 23.976 (24000/1001) FPS
Color space : YUV
Chroma subsampling : 4:2:0
Bit depth : 8 bits
Scan type : Progressive
Bits/(Pixel*Frame) : 0.441
Stream size : 21.5 GiB (78%)
Language : English
Default : Yes
Forced : No

Audio #1
ID : 2
Format : DTS
Format/Info : Digital Theater Systems
Codec ID : A_DTS
Duration : 2 h 20 min
Bit rate mode : Constant
Bit rate : 768 kb/s
Channel(s) : 6 channels
Channel positions : Front: L C R, Side: L R, LFE
Sampling rate : 48.0 kHz
Frame rate : 93.750 FPS (512 SPF)
Bit depth : 24 bits
Compression mode : Lossy
Stream size : 770 MiB (3%)
Title : Dub [License]
Language : Russian
Default : Yes
Forced : Yes

Audio #2
ID : 3
Format : AC-3
Format/Info : Audio Coding 3
Codec ID : A_AC3
Duration : 2 h 20 min
Bit rate mode : Constant
Bit rate : 448 kb/s
Channel(s) : 6 channels
Channel positions : Front: L C R, Side: L R, LFE
Sampling rate : 48.0 kHz
Frame rate : 31.250 FPS (1536 SPF)
Bit depth : 16 bits
Compression mode : Lossy
Stream size : 449 MiB (2%)
Title : Dub [License]
Language : Russian
Service kind : Complete Main
Default : No
Forced : No

Audio #3
ID : 4
Format : AC-3
Format/Info : Audio Coding 3
Codec ID : A_AC3
Duration : 2 h 20 min
Bit rate mode : Constant
Bit rate : 192 kb/s
Channel(s) : 2 channels
Channel positions : Front: L R
Sampling rate : 48.0 kHz
Frame rate : 31.250 FPS (1536 SPF)
Bit depth : 16 bits
Compression mode : Lossy
Stream size : 193 MiB (1%)
Title : MVO
Language : Russian
Service kind : Complete Main
Default : No
Forced : No

Audio #4
ID : 5
Format : AC-3
Format/Info : Audio Coding 3
Codec ID : A_AC3
Duration : 2 h 20 min
Bit rate mode : Constant
Bit rate : 448 kb/s
Channel(s) : 6 channels
Channel positions : Front: L C R, Side: L R, LFE
Sampling rate : 48.0 kHz
Frame rate : 31.250 FPS (1536 SPF)
Bit depth : 16 bits
Compression mode : Lossy
Stream size : 449 MiB (2%)
Title : Dub [License]
Language : Ukrainian
Service kind : Complete Main
Default : No
Forced : No

Audio #5
ID : 6
Format : DTS
Format/Info : Digital Theater Systems
Format profile : MA / ES Matrix / Core
Codec ID : A_DTS
Duration : 2 h 20 min
Bit rate mode : Variable / Constant / Constant
Bit rate : 4 399 kb/s / 1 509 kb/s / 1 509 kb/s
Channel(s) : 8 channels / 7 channels / 6 channels
Channel positions : Front: L C R, Side: L R, Back: L R, LFE / Front: L C R, Side: L R, Back: C, LFE / Front: L C R, Side: L R, LFE
Sampling rate : 48.0 kHz
Frame rate : 93.750 FPS (512 SPF)
Bit depth : 24 bits
Compression mode : Lossless / Lossy / Lossy
Stream size : 4.31 GiB (16%)
Title : Original
Language : English
Default : No
Forced : No

Text #1
ID : 7
Format : UTF-8
Codec ID : S_TEXT/UTF8
Codec ID/Info : UTF-8 Plain Text
Duration : 2 h 18 min
Bit rate : 61 b/s
Count of elements : 1459
Stream size : 62.8 KiB (0%)
Title : Full [License]
Language : Russian
Default : No
Forced : No

Text #2
ID : 8
Format : UTF-8
Codec ID : S_TEXT/UTF8
Codec ID/Info : UTF-8 Plain Text
Duration : 2 h 12 min
Bit rate : 76 b/s
Count of elements : 1454
Stream size : 74.0 KiB (0%)
Title : Full
Language : Russian
Default : No
Forced : No

Text #3
ID : 9
Format : UTF-8
Codec ID : S_TEXT/UTF8
Codec ID/Info : UTF-8 Plain Text
Duration : 2 h 11 min
Bit rate : 47 b/s
Count of elements : 1599
Stream size : 46.1 KiB (0%)
Title : Full
Language : English
Default : No
Forced : No

Text #4
ID : 10
Format : UTF-8
Codec ID : S_TEXT/UTF8
Codec ID/Info : UTF-8 Plain Text
Duration : 2 h 12 min
Bit rate : 51 b/s
Count of elements : 1777
Stream size : 50.4 KiB (0%)
Title : SDH
Language : English
Default : No
Forced : No

Text #5
ID : 11
Format : UTF-8
Codec ID : S_TEXT/UTF8
Codec ID/Info : UTF-8 Plain Text
Duration : 2 h 12 min
Bit rate : 63 b/s
Count of elements : 1777
Stream size : 61.9 KiB (0%)
Title : SDH Colored
Language : English
Default : No
Forced : No

Menu
00:00:00.000 : en:00:00:00.000
00:08:00.105 : en:00:08:00.105
00:11:31.983 : en:00:11:31.983
00:16:57.183 : en:00:16:57.183
00:21:09.643 : en:00:21:09.643
00:27:21.265 : en:00:27:21.265
00:33:03.356 : en:00:33:03.356
00:38:09.245 : en:00:38:09.245
00:42:29.130 : en:00:42:29.130
00:46:41.799 : en:00:46:41.799
00:54:14.334 : en:00:54:14.334
00:58:45.480 : en:00:58:45.480
01:04:55.266 : en:01:04:55.266
01:10:26.139 : en:01:10:26.139
01:16:28.250 : en:01:16:28.250
01:26:44.699 : en:01:26:44.699
01:32:06.938 : en:01:32:06.938
01:36:22.443 : en:01:36:22.443
01:41:53.149 : en:01:41:53.149
01:49:48.415 : en:01:49:48.415
01:53:45.610 : en:01:53:45.610
01:58:52.083 : en:01:58:52.083
02:07:20.132 : en:02:07:20.132
02:13:40.095 : en:02:13:40.095



Скачать Красный.воробей.Red.Sparrow.(Френсис.Лоуренс).[2018.триллер.детектив.Blu-Ray.Remux.1080p].2x[DUB].(Rus.Ukr).[Лицензия].+.[MVO].(HDRezka.Studio).torrent без регистрации
Золото ЗОЛОТАЯ РАЗДАЧА! СКАЧАННОЕ НЕ ЗАСЧИТЫВАЕТСЯ! Золото
Дата: Зарегистрирован   [ Тип: внутренний ] Как тут cкачать?
MAGNET ссылка
MAGNET ссылка


Скачать .torrent

139 KB

Статус: проверено DHT
Скачан: торрент - 392 раз, раздача полностью - 127 раз
Размер: 27,59 GB
Оценка:  4 (Голосов: 1)
Поблагодарили: 5
Поделиться ссылкой на эту раздачу с друзьями:
В контактеFacebookОдноклассникиTwitterLivejournalМой МирLiveinternet
 

 
Показать сообщения:    


Вы не можете начинать темы
Вы не можете отвечать на сообщения
Вы не можете редактировать свои сообщения
Вы не можете удалять свои сообщения
Вы не можете голосовать в опросах
Вы не можете прикреплять файлы к сообщениям
Вы можете скачивать файлы