Loading...
Error

Скачать Неделимое (Олжас Ахметов) [2017, криминал, драма, комедия, DVB] торрент без регистрации

Статистика раздачи
Размер:  1,23 GB   |    Скачан:  88 раз
Сидов:  2  [  0 KB/s  ]  
 
 
 
Автор Сообщение

leon030982

[] 

Неделимое
Год выпуска: 2017
Страна: Казахстан
Жанр: криминал, драма, комедия
Продолжительность: 01:20:10
Перевод: не требуется
Субтитры: отсутствуют

Режиссёр: Олжас Ахметов

В ролях: Азиз Бейшеналиев, Берик Айтжанов, Алексей Шемес, Нуржан Садыбеков, Чингиз Капин, Асан Мажит, Ерден Телемисов, Жибек Жаппасбаева, Ербол Семкулов, Алия Ахметова

О фильме: Совершив дерзкое ограбление машины инкассации, преступники останавливаются в придорожном заведении, где оказываются в совершенно неподходящей компании. На кону небывалый куш. И совсем скоро «гостей» раскроют. Стрелять, бежать или договариваться?..


Семпл: https://www.sendspace.com/file/2nzci8

Качество: DVB [КТК] (эфир 08.05.2018)
Формат: TS
Видео: AVC, 720x576 @ 1047x576 (16:9), 25 fps, ~1887 kbps, 0.182 bit/pixel
Аудио: [RUS] 48 kHz, MP2, 1 ch, 192 kbps
Общее
Идентификатор : 1 (0x1)
Полное имя : F:\Неделимое (2017) [КТК].ts
Формат : MPEG-TS
Размер файла : 1,23 Гбайт
Продолжительность : 1 ч. 20 м.
Режим общего битрейта : Переменный
Общий поток : 2189 Кбит/сек

Видео
Идентификатор : 67 (0x43)
Идентификатор меню : 1 (0x1)
Формат : AVC
Формат/Информация : Advanced Video Codec
Профиль формата : High@L3
Параметр CABAC формата : Да
Параметр RefFrames формата : 3 кадра
Идентификатор кодека : 27
Продолжительность : 1 ч. 20 м.
Битрейт : 1887 Кбит/сек
Ширина : 720 пикселей
Высота : 576 пикселей
Соотношение сторон : 16:9
Частота кадров : 25,000 кадров/сек
Стандарт вещания : Component
Цветовое пространство : YUV
Субдискретизация насыщенности : 4:2:0
Битовая глубина : 8 бит
Тип развёртки : Чересстрочная
Метод сохранения типа развёртки : Раздельные поля
Порядок развёртки : Верхнее поле первое
Бит/(Пиксели*Кадры) : 0.182
Размер потока : 1,06 Гбайт (86%)
Цветовой диапазон : Limited
Основные цвета : BT.601 PAL
Характеристики трансфера : BT.470 System B, BT.470 System G
Коэффициенты матрицы : BT.470 System B, BT.470 System G

Аудио
Идентификатор : 68 (0x44)
Идентификатор меню : 1 (0x1)
Формат : MPEG Audio
Версия формата : Version 1
Профиль формата : Layer 2
Идентификатор кодека : 3
Продолжительность : 1 ч. 20 м.
Вид битрейта : Постоянный
Битрейт : 192 Кбит/сек
Каналы : 1 канал
Частота : 48,0 КГц
Метод сжатия : С потерями
Задержка видео : -40 мс.
Размер потока : 110 Мбайт (9%)
Язык : English



Скачать Неделимое.(Олжас.Ахметов).[2017.криминал.драма.комедия.DVB].torrent без регистрации
Золото ЗОЛОТАЯ РАЗДАЧА! СКАЧАННОЕ НЕ ЗАСЧИТЫВАЕТСЯ! Золото
Дата: Зарегистрирован   [ Тип: внутренний ] Как тут cкачать?
MAGNET ссылка
MAGNET ссылка


Скачать .torrent

13 KB

Статус: проверено DHT
Скачан: торрент - 88 раз, раздача полностью - 60 раз
Размер: 1,23 GB
Оценка:  5 (Голосов: 1)
Поблагодарили: 2
Поделиться ссылкой на эту раздачу с друзьями:
В контактеFacebookОдноклассникиTwitterLivejournalМой МирLiveinternet
 

 
Показать сообщения:    


Вы не можете начинать темы
Вы не можете отвечать на сообщения
Вы не можете редактировать свои сообщения
Вы не можете удалять свои сообщения
Вы не можете голосовать в опросах
Вы не можете прикреплять файлы к сообщениям
Вы можете скачивать файлы