Loading...
Error

Скачать BBC. Голубая планета 2 / Blue Planet II [S01] (Дэвид Аттенборо) [2017, документальный, природа, путешествие, фауна, BDRip] [720p] [Dub]+[MVO]+[VO]+[Sub Eng] торрент без регистрации

Статистика раздачи
Размер:  18,03 GB   |    Скачан:  40 раз
Сидов:  25  [  0 KB/s  ]   Личеров:  9  [  0 KB/s  ]  
 
 
 
Автор Сообщение

Marsianka

[] 

Информация о фильме
Название: Голубая планета 2
Оригинальное название: Blue Planet II
Год выпуска: 2017
Жанр: документальный, природа, путешествие, фауна
Выпущено: Великобритания, BBC Natural History Unit
Режиссер: Дэвид Аттенборо
В ролях: Дэвид Аттенборо

О фильме: Второй сезон "Blue Planet" продолжает рассказ об исследовании малоизученные глубины мирового океана. Новейшие технологии дают возможность, как никогда прежде, взглянуть на водный мир Земли и показать зрителю исследованный край подводного мира, который ранее был недоступен человеческому глазу. Современное оборудование и опытные разработчики представят красочную и четкую глубоководную съемку, в которой отображаются редчайшие кадры из жизни обитателей мира океана. Мы сможем познакомиться и открыть для себя большое количество того, о чем ранее даже не могли догадываться. В каждом эпизоде сериала несколько частей, посвященных определенному животному или части света. Использование новейших технологий и уникального оборудования для глубоководных съемок раскроют зрителю самые сокровенные тайны мирового океана и позволят увидеть редчайшие кадры из жизни его обитателей, о существовании которых мы могли ранее только догадываться.



Продолжительность: 7 x ~ 00:58:00
Перевод: Дублированный, любительский многоголосый, любительский одноголосый
Субтитры: Английские

Файл
Качество: BDRip (720p)
Видео: MPEG-4 AVC, ~ 5445 Кбит/с, 1280x720

Сэмпл
Аудио #1: Русский (AC3, 2 ch, 192 Кбит/с) - дублированный (Н.Дроздов) + вставки на непереведённые места от Jimmy J. (1-2 серии ) / ColdFilm (3-7 серии)
Аудио #2: Русский (AC3, 6 ch, 448 Кбит/с) - VO "Jimmy J." [1-2 серии], (AC3, 2 ch, 192 Кбит/с) - MVO "ColdFilm" [3-7 серии]
Аудио #3: Английский (AC3, 6 ch, 448 Кбит/с)
Формат : Matroska
Версия формата : Version 2
Размер файла : 2,65 Гбайт
Продолжительность : 58 м. 7 с.
Общий поток : 6531 Кбит/сек
Название фильма : 2. Бездна (Release by V_ad)
Дата кодирования : UTC 2018-03-26 08:18:48
Программа кодирования : mkvmerge v6.5.0 ('Isn't she lovely') built on Oct 20 2013 12:50:05
Библиотека кодирования : libebml v1.3.0 + libmatroska v1.4.1
Обложка : Yes
Attachments : cover.jpg

Видео
Идентификатор : 1
Формат : AVC
Формат/Информация : Advanced Video Codec
Профиль формата : High@L4.1
Настройки формата : CABAC / 9 Ref Frames
Параметр CABAC формата : Да
Параметр RefFrames формата : 9 кадров
Идентификатор кодека : V_MPEG4/ISO/AVC
Продолжительность : 58 м. 7 с.
Битрейт : 5440 Кбит/сек
Ширина : 1280 пикселей
Высота : 720 пикселей
Соотношение сторон : 16:9
Режим частоты кадров : Постоянный
Частота кадров : 25,000 кадров/сек
Цветовое пространство : YUV
Субдискретизация насыщенности : 4:2:0
Битовая глубина : 8 бит
Тип развёртки : Прогрессивная
Бит/(Пиксели*Кадры) : 0.236
Размер потока : 2,16 Гбайт (81%)
Библиотека кодирования : x264 core 155 r2901 7d0ff22
Настройки программы : cabac=1 / ref=9 / deblock=1:-3:-3 / analyse=0x3:0x133 / me=umh / subme=11 / psy=1 / psy_rd=1.00:0.00 / mixed_ref=1 / me_range=32 / chroma_me=1 / trellis=2 / 8x8dct=1 / cqm=0 / deadzone=21,11 / fast_pskip=0 / chroma_qp_offset=-2 / threads=12 / lookahead_threads=1 / sliced_threads=0 / nr=0 / decimate=0 / interlaced=0 / bluray_compat=0 / constrained_intra=0 / bframes=9 / b_pyramid=2 / b_adapt=2 / b_bias=0 / direct=3 / weightb=1 / open_gop=0 / weightp=2 / keyint=250 / keyint_min=25 / scenecut=40 / intra_refresh=0 / rc=2pass / mbtree=0 / bitrate=5440 / ratetol=1.0 / qcomp=0.70 / qpmin=0 / qpmax=69 / qpstep=4 / cplxblur=20.0 / qblur=0.5 / ip_ratio=1.24 / pb_ratio=1.30 / aq=3:0.70
Язык : Английский
Default : Да
Forced : Нет

Аудио #1
Идентификатор : 2
Формат : AC-3
Формат/Информация : Audio Coding 3
Идентификатор кодека : A_AC3
Продолжительность : 58 м. 7 с.
Вид битрейта : Постоянный
Битрейт : 192 Кбит/сек
Каналы : 2 канала
Расположение каналов : Front: L R
Частота : 48,0 КГц
Частота кадров : 31,250 кадров/сек (1536 SPF)
Битовая глубина : 16 бит
Метод сжатия : С потерями
Размер потока : 79,8 Мбайт (3%)
Заголовок : Dub (Дроздов + вставки Jimmy J)
Язык : Русский
Service Kind : Complete Main
Default : Да
Forced : Нет

Аудио #2
Идентификатор : 3
Формат : AC-3
Формат/Информация : Audio Coding 3
Идентификатор кодека : A_AC3
Продолжительность : 58 м. 7 с.
Вид битрейта : Постоянный
Битрейт : 448 Кбит/сек
Каналы : 6 каналов
Расположение каналов : Front: L C R, Side: L R, LFE
Частота : 48,0 КГц
Частота кадров : 31,250 кадров/сек (1536 SPF)
Битовая глубина : 16 бит
Метод сжатия : С потерями
Размер потока : 186 Мбайт (7%)
Заголовок : AVO (Jimmy J)
Язык : Русский
Service Kind : Complete Main
Default : Нет
Forced : Нет

Аудио #3
Идентификатор : 4
Формат : AC-3
Формат/Информация : Audio Coding 3
Идентификатор кодека : A_AC3
Продолжительность : 58 м. 7 с.
Вид битрейта : Постоянный
Битрейт : 448 Кбит/сек
Каналы : 6 каналов
Расположение каналов : Front: L C R, Side: L R, LFE
Частота : 48,0 КГц
Частота кадров : 31,250 кадров/сек (1536 SPF)
Битовая глубина : 16 бит
Метод сжатия : С потерями
Размер потока : 186 Мбайт (7%)
Язык : Английский
Service Kind : Complete Main
Default : Нет
Forced : Нет

Текст
Идентификатор : 5
Формат : UTF-8
Идентификатор кодека : S_TEXT/UTF8
Идентификатор кодека/Информация : UTF-8 Plain Text
Язык : Английский
Default : Нет
Forced : Нет

Меню
00:00:00.000 : en:Chapter 01
00:07:16.320 : en:Chapter 02
00:20:15.400 : en:Chapter 03
00:27:47.320 : en:Chapter 04
00:38:53.920 : en:Chapter 05
00:50:16.440 : en:Chapter 06
Релиз от:



Скачать BBC.Голубая.планета.2.Blue.Planet.II.[S01].(Дэвид.Аттенборо).[2017.документальный.природа.путешествие.фауна.BDRip].[720p].[Dub]+[MVO]+[VO]+[Sub.Eng].torrent без регистрации
Золото ЗОЛОТАЯ РАЗДАЧА! СКАЧАННОЕ НЕ ЗАСЧИТЫВАЕТСЯ! Золото
Дата: Зарегистрирован   [ Тип: внешний ] Как тут cкачать?
MAGNET ссылка
MAGNET ссылка


Скачать .torrent

47 KB

Статус: проверено DHT
Скачан: торрент - 40 раз, раздача полностью - 2 раз
Размер: 18,03 GB
Оценка:  - (Голосов: 0)
Поблагодарили: 1
Поделиться ссылкой на эту раздачу с друзьями:
В контактеFacebookОдноклассникиTwitterLivejournalМой МирLiveinternet
 

 
Показать сообщения:    


Вы не можете начинать темы
Вы не можете отвечать на сообщения
Вы не можете редактировать свои сообщения
Вы не можете удалять свои сообщения
Вы не можете голосовать в опросах
Вы не можете прикреплять файлы к сообщениям
Вы можете скачивать файлы