Loading...
Error

Скачать Комендантский час 2 (Законы рукопашного боя 2) / Martial Law II: Undercover (Курт Андерсон) [1991, боевик, криминал, BDRip] [1080p] [MVO (R5)] + [AVO (А. Гаврилов)] [R.G. Goldenshara] торрент без регистрации

Статистика раздачи
Размер:  4,37 GB   |    Скачан:  46 раз
Сидов:  3  [  0 KB/s  ]  
 
 
 
Автор Сообщение

sobmaster

[] 



Комендантский час 2 (Законы рукопашного боя 2)
Martial Law II: Undercover




Год выпуска: 1991
Страна: США
Выпущено: Image Organization, M-L Partnership, Westwind
Слоган: «Urban warriors with a badge. Their bodies are their weapons...»
Жанр: боевик, криминал

Продолжительность: 01:31:40
Перевод #1: Профессиональный (многоголосый, закадровый) (R5)
Перевод #2: Авторский (одноголосый, закадровый) (А. Гаврилов)
Режиссер: Курт Андерсон
Сценарий: Ричард Брандес, Джилс Фицджералд, Пьер Дэвид
Продюсер: Стив Коэн, Пьер Дэвид, Роберт В. Манн
Оператор: Питер Фернбергер
Композитор: Эллиот Соломон
Художник: Джеймс Р. Шумакер, Яна Сыркин, Шэрон Рид
Монтаж: Майкл Тибо
В ролях:


Джефф Уинкотт (Det. Sean Thompson), Синтия Ротрок (Billie Blake), Пол Йоханссон (Spencer Hamilton), Эван Лурье (Tanner), Чарльз Тейлор (Dobbs), Шерри Роуз (Bree), Билли Драго (Captain Krantz), Дебора Дриггс (Tiffany), Конрой Гедеон (Jones), Кимбер Сиссонс (Celeste), Лео Ли (Han), Макс Тэйер (Captain Banks), Джон Видор (Sonny), Николас Хилл (Jorge), Пэт Асанти (George)
Мировая премьера: 31 января 1992
MPAA: - Лицам до 17 лет обязательно присутствие взрослого

Описание: Шон Томпсон очень любил работать на пару с Билли. Они оба были полицейскими, но если Шона бандиты разгадывали почти сразу после начала первой «дружеской» беседы, то, чтобы «раскусить» Билли, любому пришлось бы немало потрудиться: во-первых, Билли — дамочка, во-вторых, достаточно миловидная и хрупкая на внешность, а в-третьих, она владела искусством рукопашного боя почище многих здоровенных мужиков.
Шона устраивало такое партнерство, и именно Билли он позвал на помощь, когда на своем новом месте работы обнаружил, что мафия купила всех и вся, включая многих полицейских…


Качество: BDRip 1080p
Контейнер: MKV
Видео: AVC, 1920x1080 (16:9), 6344 kbps, 23.976 fps, 0.128 bpp
Аудио #1: русский /; AC3 /; 2.0 /; 48 kHz /; 256 kbps /; 16 bit; || MVO (R5)
Аудио #2: русский /; AC3 /; 2.0 /; 48 kHz /; 256 kbps /; 16 bit; || AVO (А. Гаврилов)
Субтитры: русские

АНОНСЫ ПОПУЛЯРНЫХ РАЗДАЧ


Код:

General
Unique ID                                : 246198836478311898821338381515549484123 (0xB9382BD02364BB35A96A44ED98D6A45B)
Complete name                            : G:\Комендантский час 2.1991.BDRip.1080p.MVO+AVO.mkv
Format                                   : Matroska
Format version                           : Version 4 / Version 2
File size                                : 4.37 GiB
Duration                                 : 1h 31mn
Overall bit rate                         : 6 855 Kbps
Encoded date                             : UTC 2018-04-21 04:09:02
Writing application                      : mkvmerge v6.8.0 ('Theme for Great Cities') 32bit built on Mar  2 2014 21:27:07
Writing library                          : libebml v1.3.0 + libmatroska v1.4.1

Video
ID                                       : 1
Format                                   : AVC
Format/Info                              : Advanced Video Codec
Format profile                           : High@L4.1
Format settings, CABAC                   : Yes
Format settings, ReFrames                : 4 frames
Codec ID                                 : V_MPEG4/ISO/AVC
Duration                                 : 1h 31mn
Bit rate                                 : 6 344 Kbps
Width                                    : 1 920 pixels
Height                                   : 1 080 pixels
Display aspect ratio                     : 16:9
Frame rate mode                          : Constant
Frame rate                               : 23.976 fps
Color space                              : YUV
Chroma subsampling                       : 4:2:0
Bit depth                                : 8 bits
Scan type                                : Progressive
Bits/(Pixel*Frame)                       : 0.128
Stream size                              : 3.96 GiB (91%)
Writing library                          : x264 core 130 r2273 b3065e6
Encoding settings                        : cabac=1 / ref=4 / deblock=1:-3:-3 / analyse=0x3:0x113 / me=umh / subme=11 / psy=1 / psy_rd=1.00:0.15 / mixed_ref=1 / me_range=48 / chroma_me=1 / trellis=2 / 8x8dct=1 / cqm=0 / deadzone=21,11 / fast_pskip=0 / chroma_qp_offset=-4 / threads=6 / lookahead_threads=1 / sliced_threads=0 / nr=0 / decimate=0 / interlaced=0 / bluray_compat=0 / constrained_intra=0 / bframes=8 / b_pyramid=2 / b_adapt=2 / b_bias=0 / direct=2 / weightb=1 / open_gop=0 / weightp=2 / keyint=250 / keyint_min=23 / scenecut=40 / intra_refresh=0 / rc=2pass / mbtree=0 / bitrate=6344 / ratetol=1.0 / qcomp=0.60 / qpmin=0 / qpmax=69 / qpstep=4 / cplxblur=20.0 / qblur=0.5 / ip_ratio=1.40 / pb_ratio=1.30 / aq=2:1.00
Language                                 : English
Default                                  : Yes
Forced                                   : No
Color primaries                          : Generic film
Matrix coefficients                      : YCgCo

Audio #1
ID                                       : 2
Format                                   : AC-3
Format/Info                              : Audio Coding 3
Mode extension                           : CM (complete main)
Format settings, Endianness              : Big
Codec ID                                 : A_AC3
Duration                                 : 1h 31mn
Bit rate mode                            : Constant
Bit rate                                 : 256 Kbps
Channel(s)                               : 2 channels
Channel positions                        : Front: L R
Sampling rate                            : 48.0 KHz
Bit depth                                : 16 bits
Compression mode                         : Lossy
Stream size                              : 167 MiB (4%)
Title                                    : MVO (R5)
Language                                 : Russian
Default                                  : Yes
Forced                                   : No

Audio #2
ID                                       : 3
Format                                   : AC-3
Format/Info                              : Audio Coding 3
Mode extension                           : CM (complete main)
Format settings, Endianness              : Big
Codec ID                                 : A_AC3
Duration                                 : 1h 31mn
Bit rate mode                            : Constant
Bit rate                                 : 256 Kbps
Channel(s)                               : 2 channels
Channel positions                        : Front: L R
Sampling rate                            : 48.0 KHz
Bit depth                                : 16 bits
Compression mode                         : Lossy
Stream size                              : 167 MiB (4%)
Title                                    : AVO (Гаврилов)
Language                                 : Russian
Default                                  : No
Forced                                   : No

Text
ID                                       : 4
Format                                   : UTF-8
Codec ID                                 : S_TEXT/UTF8
Codec ID/Info                            : UTF-8 Plain Text
Language                                 : Russian
Default                                  : No
Forced                                   : No






Скачать Комендантский.час.2.(Законы.рукопашного.боя.2).Martial.Law.II.Undercover.(Курт.Андерсон).[1991.боевик.криминал.BDRip].[1080p].[MVO.(R5)].+.[AVO.(А.Гаврилов)].[R.G.Goldenshara].torrent без регистрации
Золото ЗОЛОТАЯ РАЗДАЧА! СКАЧАННОЕ НЕ ЗАСЧИТЫВАЕТСЯ! Золото
Дата: Зарегистрирован   [ Тип: внутренний ] Как тут cкачать?
MAGNET ссылка
MAGNET ссылка


Скачать .torrent

11 KB

Статус: проверено DHT
Скачан: торрент - 46 раз, раздача полностью - 4 раз
Размер: 4,37 GB
Оценка:  5 (Голосов: 3)
Поблагодарили: 5
Поделиться ссылкой на эту раздачу с друзьями:
В контактеFacebookОдноклассникиTwitterLivejournalМой МирLiveinternet
 

 
Показать сообщения:    


Вы не можете начинать темы
Вы не можете отвечать на сообщения
Вы не можете редактировать свои сообщения
Вы не можете удалять свои сообщения
Вы не можете голосовать в опросах
Вы не можете прикреплять файлы к сообщениям
Вы можете скачивать файлы