Loading...
Error

Скачать Кролик Питер / Peter Rabbit (Уилл Глак) [2018, Мультфильм, фэнтези, комедия, приключения, семейный, полнометражный, BDRip][1080p] [Dub Rus Ukr Лицензия] [R.G. GoldenShara] торрент без регистрации

Статистика раздачи
Размер:  4,79 GB   |    Скачан:  226 раз

Полного источника не было: 8 дней

Личеров:  2  [  0 KB/s  ]  
 
 
 
Автор Сообщение

Magnetto83

[] 


Кролик Питер / Peter Rabbit


Год выпуска: 2018
Выпущено: США | Sony Pictures Animation
Жанр: Мультфильм, фэнтези, комедия, приключения, семейный, полнометражный
Продолжительность: 01:34:43
Перевод 1 и 2: Профессиональный (полное дублирование)| Blu-ray CEE |
Субтитры: Русские (форс. + полные), украинские (повні), английские (Full + SDH + SDH-Colored)
Навигация по главам: Сохранены оригинальные главы как на Blu-ray

Слоган: «Лучшее лекарство от весеннего авитаминоза»

Режиссер: Уилл Глак

В ролях: Джеймс Корден, Файсаль Баззи, Донал Глисон, Сиа, Колин Муди, Сэм Нилл, Марго Робби, Элизабет Дебики, Дэйзи Ридли, Роуз Бирн

Описание: Фильм о приключениях маленького и непоседливого крольчонка по имени Питер, который хочет пробраться в огород к грозному фермеру и вдоволь полакомиться там фруктами и овощами.



Возраст: 6+ (Зрителям, достигшим 6 лет)

Качество: BDRip 1080p
Формат: MKV
Видео кодек: H.264
Аудио кодек: AC3
Видео: 1920x800 (2.40:1), 5960 Кбит/с, 23.976 fps
Аудио: Русский Dolby Digital 5.1 (640 Кбит/с) Вшит в контейнер
Аудио: Украиский Dolby Digital 5.1 (640 Кбит/с) Отдельным файлом


x264 [info]: frame I:1515 Avg QP:17.43 size:197289
x264 [info]: frame P:34896 Avg QP:19.71 size: 57688
x264 [info]: frame B:99837 Avg QP:22.04 size: 19247
x264 [info]: consecutive B-frames: 4.4% 5.5% 6.6% 38.9% 14.0% 23.2% 4.3% 2.5% 0.7%
x264 [total]: encoded 136248 frames, 1.49 fps, 5959.99 kb/s



General
Complete name : D:\Видео\1080 Собственные Рипы\Кино Хиты 2018 1080р\Кролик Питер 2018 Dub Rus Ukr BDRip 1080p\Кролик Питер 2018 Dub BDRip 1080p.mkv
Format : Matroska
Format version : Version 4 / Version 2
File size : 4.37 GiB
Duration : 1h 34mn
Overall bit rate : 6 603 Kbps
Movie name : Кролик Питер 2018 Dub Rus BDRip 1080p By R.G. GoldenShara
Encoded date : UTC 2018-05-17 19:39:45
Writing application : mkvmerge v7.0.0 ('Where We Going') 64bit built on Jun 9 2014 15:16:27
Writing library : libebml v1.3.0 + libmatroska v1.4.1
DURATION : 01:33:54.717000000
NUMBER_OF_FRAMES : 1542
NUMBER_OF_BYTES : 71717
_STATISTICS_WRITING_APP : mkvmerge v7.0.0 ('Where We Going') 64bit built on Jun 9 2014 15:16:27
_STATISTICS_WRITING_DATE_UTC : 2018-05-17 19:39:45
_STATISTICS_TAGS : BPS DURATION NUMBER_OF_FRAMES NUMBER_OF_BYTES
Attachment : Yes

Video
ID : 1
Format : AVC
Format/Info : Advanced Video Codec
Format profile : High@L4.1
Format settings, CABAC : Yes
Format settings, ReFrames : 5 frames
Codec ID : V_MPEG4/ISO/AVC
Duration : 1h 34mn
Bit rate : 5 960 Kbps
Width : 1 920 pixels
Height : 800 pixels
Display aspect ratio : 2.40:1
Frame rate mode : Constant
Frame rate : 23.976 fps
Color space : YUV
Chroma subsampling : 4:2:0
Bit depth : 8 bits
Scan type : Progressive
Bits/(Pixel*Frame) : 0.162
Stream size : 3.86 GiB (88%)
Title : Кролик Питер 2018 BDRip 1080p By Magnetto 83
Writing library : x264 core 146 r2538 121396c
Encoding settings : cabac=1 / ref=5 / deblock=1:-3:-3 / analyse=0x3:0x113 / me=umh / subme=11 / psy=1 / psy_rd=1.00:0.00 / mixed_ref=1 / me_range=32 / chroma_me=1 / trellis=2 / 8x8dct=1 / cqm=0 / deadzone=21,11 / fast_pskip=0 / chroma_qp_offset=-2 / threads=3 / lookahead_threads=1 / sliced_threads=0 / nr=0 / decimate=1 / interlaced=0 / bluray_compat=0 / constrained_intra=0 / bframes=8 / b_pyramid=2 / b_adapt=2 / b_bias=0 / direct=3 / weightb=1 / open_gop=0 / weightp=2 / keyint=250 / keyint_min=23 / scenecut=40 / intra_refresh=0 / rc=2pass / mbtree=0 / bitrate=5960 / ratetol=1.0 / qcomp=0.60 / qpmin=0 / qpmax=69 / qpstep=4 / cplxblur=20.0 / qblur=0.5 / ip_ratio=1.40 / pb_ratio=1.30 / aq=2:1.00
Language : English
Default : Yes
Forced : No

Audio
ID : 2
Format : AC-3
Format/Info : Audio Coding 3
Mode extension : CM (complete main)
Format settings, Endianness : Big
Codec ID : A_AC3
Duration : 1h 34mn
Bit rate mode : Constant
Bit rate : 640 Kbps
Channel(s) : 6 channels
Channel positions : Front: L C R, Side: L R, LFE
Sampling rate : 48.0 KHz
Bit depth : 16 bits
Compression mode : Lossy
Stream size : 434 MiB (10%)
Title : DD 5.1 @ 640 kbps - Дубляж | Blu-ray CEE |
Language : Russian
Default : Yes
Forced : No

Text #1
ID : 3
Format : UTF-8
Codec ID : S_TEXT/UTF8
Codec ID/Info : UTF-8 Plain Text
Title : Форс.
Language : Russian
Default : Yes
Forced : No

Text #2
ID : 4
Format : UTF-8
Codec ID : S_TEXT/UTF8
Codec ID/Info : UTF-8 Plain Text
Title : Полные
Language : Russian
Default : No
Forced : No

Text #3
ID : 5
Format : UTF-8
Codec ID : S_TEXT/UTF8
Codec ID/Info : UTF-8 Plain Text
Title : Повні
Language : Ukrainian
Default : No
Forced : No

Text #4
ID : 6
Format : UTF-8
Codec ID : S_TEXT/UTF8
Codec ID/Info : UTF-8 Plain Text
Title : Full
Language : English
Default : No
Forced : No

Text #5
ID : 7
Format : UTF-8
Codec ID : S_TEXT/UTF8
Codec ID/Info : UTF-8 Plain Text
Title : SDH
Language : English
Default : No
Forced : No

Text #6
ID : 8
Format : UTF-8
Codec ID : S_TEXT/UTF8
Codec ID/Info : UTF-8 Plain Text
Title : SDH-Colored
Language : English
Default : No
Forced : No

Menu
00:00:00.000 : :00:00:00.000
00:04:04.786 : :00:04:04.786
00:08:26.297 : :00:08:26.297
00:15:11.702 : :00:15:11.702
00:21:00.634 : :00:21:00.634
00:25:43.584 : :00:25:43.584
00:30:50.265 : :00:30:50.265
00:38:00.862 : :00:38:00.862
00:44:37.341 : :00:44:37.341
00:50:07.671 : :00:50:07.671
00:56:21.295 : :00:56:21.295
01:01:07.581 : :01:01:07.581
01:07:02.560 : :01:07:02.560
01:10:30.810 : :01:10:30.810
01:14:35.137 : :01:14:35.137
01:21:51.990 : :01:21:51.990







Скачать Кролик.Питер.Peter.Rabbit.(Уилл.Глак).[2018.Мультфильм.фэнтези.комедия.приключения.семейный.полнометражный.BDRip][1080p].[Dub.Rus.Ukr.Лицензия].[R.G.GoldenShara].torrent без регистрации
Золото ЗОЛОТАЯ РАЗДАЧА! СКАЧАННОЕ НЕ ЗАСЧИТЫВАЕТСЯ! Золото
Дата: Зарегистрирован   [ Тип: внутренний ] Как тут cкачать?
MAGNET ссылка
MAGNET ссылка


Скачать .torrent

13 KB

Статус: проверено
Скачан: торрент - 226 раз, раздача полностью - 62 раз
Размер: 4,79 GB
Оценка:  5 (Голосов: 5)
Поблагодарили: 14
Поделиться ссылкой на эту раздачу с друзьями:
В контактеFacebookОдноклассникиTwitterLivejournalМой МирLiveinternet
 

 
Показать сообщения:    


Вы не можете начинать темы
Вы не можете отвечать на сообщения
Вы не можете редактировать свои сообщения
Вы не можете удалять свои сообщения
Вы не можете голосовать в опросах
Вы не можете прикреплять файлы к сообщениям
Вы можете скачивать файлы