Loading...
Error

Скачать Исчезновение / The Vanishing (Джордж Слёйзер) [1993, триллер, детектив, драма, BDRip] [1080p] [MVO] [R.G. Goldenshara] торрент без регистрации

Статистика раздачи
Размер:  4,37 GB   |    Скачан:  105 раз
Сидов:  2  [  0 KB/s  ]  
 
 
 
Автор Сообщение

sobmaster

[] 



Исчезновение
The Vanishing




Год выпуска: 1993
Страна: США
Выпущено: 20th Century Fox Film Corporation
Слоган: «If someone you loved mysteriously vanished how far out of your mind would you go to find them?»
Жанр: триллер, детектив, драма

Продолжительность: 01:49:38
Перевод: Профессиональный (многоголосый, закадровый)
Режиссер: Джордж Слёйзер
Сценарий: Тодд Графф, Тим Краббе
Продюсер: Ларри Брэзнер, Пол Шифф, Питер Жан Брюгге
Оператор: Питер Сушицки
Композитор: Джерри Голдсмит
Художник: Джаннин Оппуолл, Стивен Вулф, Дуринда Вуд
Монтаж: Брюс Грин
В ролях:


Кифер Сазерленд (Jeff Harriman), Джефф Бриджес (Barney Cousins), Нэнси Трэвис (Rita Baker), Сандра Буллок (Diane Shaver), Парк Овералл (Lynn), Мэгги Линдерман (Denise Cousins), Лиза Айкхорн (Helene Cousins), Джордж Хирн (Arthur Bernard), Линн Хэмилтон (Miss Carmichael), Гаррет Беннетт (Cop at Gas Station), Джордж Каталано (Highway Cop), Фрэнк Жирардо (Cop at Apartment), Стефен Бриджуотер (TV Host)
Сборы в США: $14 543 394
Зрители: США 3.51 млн , Испания 239.3 тыс. , Франция 52.8 тыс.
Мировая премьера: 5 февраля 1993
Релиз на DVD: 23 июля 2009, «Двадцатый Век Фокс СНГ»
MPAA: - Лицам до 17 лет обязательно присутствие взрослого

Описание: Молодой писатель Джефф Харримен и его невеста Дайэн едут в романтическое путешествие. По пути они делают остановку, чтобы Дайэн могла сбегать в небольшой придорожный магазинчик, вернуться из которого девушке будет не суждено. Возлюбленная Джеффа исчезла без следа. Харримен начинает искать невесту.


Качество: BDRip 1080p
Контейнер: MKV
Видео: AVC, 1920x1036 (1.85:1), 5260 kbps, 23.976 fps, 0.110 bpp
Аудио: русский /; AC3 /; 5.1 /; 48 kHz /; 448 kbps /; 16 bit; ||
Субтитры #1: русские
Субтитры #2: английские (full)
Субтитры #3: английские (SDH)
Навигация по главам: есть

АНОНСЫ ПОПУЛЯРНЫХ РАЗДАЧ

  • Этот фильм является американским римейком фильма 1988 года «Spoorloos», высоко котируемым у авторитетных критиков и простых зрителей. Примечательно, что обе картины снял один и тот же режиссёр.
  • Бюджет фильма составил 20 миллионов долларов, что в 10 раз превышает финансовую базу оригинального голландского триллера 1988 года.
  • Джорджу Слуизеру было позволено снять американский римейк собственного фильма только при условии, если он переделает концовку. Тамошняя аудитория не приняла бы трагичный и безысходный финал оригинальной картины.
  • Дом у озера, в котором злодей делает свои чёрные дела, это собственность летнего лагеря бойскаутов в штате Вашингтон.

Код:

General
Unique ID                                : 181945504157354858182244271634287523316 (0x88E16DF1C4763C299A591201E5C175F4)
Complete name                            : E:\Мои рипы\Исчезновение.1993.BDRip.1080p.MVO.mkv
Format                                   : Matroska
Format version                           : Version 4 / Version 2
File size                                : 4.37 GiB
Duration                                 : 1h 49mn
Overall bit rate                         : 5 708 Kbps
Movie name                               : -=MediaClub-kaspr=-
Encoded date                             : UTC 2018-05-25 10:57:37
Writing application                      : mkvmerge v6.8.0 ('Theme for Great Cities') 32bit built on Mar  2 2014 21:27:07
Writing library                          : libebml v1.3.0 + libmatroska v1.4.1

Video
ID                                       : 1
Format                                   : AVC
Format/Info                              : Advanced Video Codec
Format profile                           : High@L4.1
Format settings, CABAC                   : Yes
Format settings, ReFrames                : 4 frames
Codec ID                                 : V_MPEG4/ISO/AVC
Duration                                 : 1h 49mn
Bit rate                                 : 5 260 Kbps
Width                                    : 1 920 pixels
Height                                   : 1 036 pixels
Display aspect ratio                     : 1.85:1
Frame rate mode                          : Constant
Frame rate                               : 23.976 fps
Color space                              : YUV
Chroma subsampling                       : 4:2:0
Bit depth                                : 8 bits
Scan type                                : Progressive
Bits/(Pixel*Frame)                       : 0.110
Stream size                              : 3.94 GiB (90%)
Writing library                          : x264 core 130 r2273 b3065e6
Encoding settings                        : cabac=1 / ref=4 / deblock=1:-3:-3 / analyse=0x3:0x113 / me=umh / subme=11 / psy=1 / psy_rd=1.00:0.15 / mixed_ref=1 / me_range=48 / chroma_me=1 / trellis=2 / 8x8dct=1 / cqm=0 / deadzone=21,11 / fast_pskip=0 / chroma_qp_offset=-4 / threads=6 / lookahead_threads=1 / sliced_threads=0 / nr=0 / decimate=0 / interlaced=0 / bluray_compat=0 / constrained_intra=0 / bframes=8 / b_pyramid=2 / b_adapt=2 / b_bias=0 / direct=2 / weightb=1 / open_gop=0 / weightp=2 / keyint=250 / keyint_min=23 / scenecut=40 / intra_refresh=0 / rc=2pass / mbtree=0 / bitrate=5260 / ratetol=1.0 / qcomp=0.60 / qpmin=0 / qpmax=69 / qpstep=4 / cplxblur=20.0 / qblur=0.5 / ip_ratio=1.40 / pb_ratio=1.30 / aq=2:1.00
Language                                 : English
Default                                  : Yes
Forced                                   : No
Color primaries                          : Generic film
Matrix coefficients                      : YCgCo

Audio
ID                                       : 2
Format                                   : AC-3
Format/Info                              : Audio Coding 3
Mode extension                           : CM (complete main)
Format settings, Endianness              : Big
Codec ID                                 : A_AC3
Duration                                 : 1h 49mn
Bit rate mode                            : Constant
Bit rate                                 : 448 Kbps
Channel(s)                               : 6 channels
Channel positions                        : Front: L C R, Side: L R, LFE
Sampling rate                            : 48.0 KHz
Bit depth                                : 16 bits
Compression mode                         : Lossy
Stream size                              : 351 MiB (8%)
Title                                    : MVO
Language                                 : Russian
Default                                  : Yes
Forced                                   : No

Text #1
ID                                       : 3
Format                                   : UTF-8
Codec ID                                 : S_TEXT/UTF8
Codec ID/Info                            : UTF-8 Plain Text
Title                                    : Full
Language                                 : Russian
Default                                  : No
Forced                                   : No

Text #2
ID                                       : 4
Format                                   : UTF-8
Codec ID                                 : S_TEXT/UTF8
Codec ID/Info                            : UTF-8 Plain Text
Title                                    : Full
Language                                 : English
Default                                  : No
Forced                                   : No

Text #3
ID                                       : 5
Format                                   : UTF-8
Codec ID                                 : S_TEXT/UTF8
Codec ID/Info                            : UTF-8 Plain Text
Title                                    : SDH
Language                                 : English
Default                                  : No
Forced                                   : No

Menu
00:00:00.000                             : en:Chapter 01
00:10:44.518                             : en:Chapter 02
00:20:03.868                             : en:Chapter 03
00:29:56.795                             : en:Chapter 04
00:38:21.632                             : en:Chapter 05
00:49:36.390                             : en:Chapter 06
00:53:00.010                             : en:Chapter 07
01:01:58.840                             : en:Chapter 08
01:13:56.305                             : en:Chapter 09
01:24:40.033                             : en:Chapter 10
01:34:11.228                             : en:Chapter 11
01:46:32.469                             : en:Chapter 12






Скачать Исчезновение.The.Vanishing.(Джордж.Слёйзер).[1993.триллер.детектив.драма.BDRip].[1080p].[MVO].[R.G.Goldenshara].torrent без регистрации
Золото ЗОЛОТАЯ РАЗДАЧА! СКАЧАННОЕ НЕ ЗАСЧИТЫВАЕТСЯ! Золото
Дата: Зарегистрирован   [ Тип: внутренний ] Как тут cкачать?
MAGNET ссылка
MAGNET ссылка


Скачать .torrent

11 KB

Статус: проверено DHT
Скачан: торрент - 105 раз, раздача полностью - 41 раз
Размер: 4,37 GB
Оценка:  5 (Голосов: 3)
Поблагодарили: 8
Поделиться ссылкой на эту раздачу с друзьями:
В контактеFacebookОдноклассникиTwitterLivejournalМой МирLiveinternet
 

 

Голден Шура

[] 

Хороший триллер! ay Жутковатая концовка ai

P.S. sobmaster, я так понимаю, Бриджес - любимый актёр, раз ты его в титрах даже выделил?
 

sobmaster

[] 

Голден Шура писал(а):

я так понимаю, Бриджес - любимый актёр, раз ты его в титрах даже выделил?
Да, действительно, один из самых любимых! ab
 

dorga6

[] 

Пожалуйста, встаньте кто-нибудь на раздачу! Спасибо!
 
Показать сообщения:    


Вы не можете начинать темы
Вы не можете отвечать на сообщения
Вы не можете редактировать свои сообщения
Вы не можете удалять свои сообщения
Вы не можете голосовать в опросах
Вы не можете прикреплять файлы к сообщениям
Вы можете скачивать файлы