Loading...
Error

Скачать Коммандо из пригорода / Suburban Commando (Берт Кеннеди) [1991, фантастика, боевик, комедия, WEBRip] [1080p] 2x[MVO (СТС, НТВ)] + [AVO (А. Гаврилов)] [R.G. Goldenshara] торрент без регистрации

Статистика раздачи
Размер:  4,37 GB   |    Скачан:  47 раз
Сидов:  2  [  0 KB/s  ]  
 
 
 
Автор Сообщение

sobmaster

[] 



Коммандо из пригорода
Suburban Commando




Год выпуска: 1991
Страна: США
Выпущено: New Line Cinema
Слоган: «Shep Ramsey was ordered to take a vacation on Earth. But was unprepared for suburban life on the planet Earth!»
Жанр: фантастика, боевик, комедия

Продолжительность: 01:30:36
Перевод #1: Профессиональный (многоголосый, закадровый) (СТС)
Перевод #2: Профессиональный (многоголосый, закадровый) (НТВ)
Перевод #3: Авторский (одноголосый, закадровый) (А. Гаврилов)
Режиссер: Берт Кеннеди
Сценарий: Фрэнк А. Каппелло
Продюсер: Ховард Готфрид, Стэнли Э. Фостер, Халк Хоган
Оператор: Бернд Хайнль
Композитор: Дэвид Майкл Фрэнк
Художник: Иво Кристанте, С.Дж. Строун, Антуан Бонсорт
Монтаж: Терри Стоукс
В ролях:


Халк Хоган (Shep Ramsey), Кристофер Ллойд (Charlie Wilcox), Шелли Дювалл (Jenny Wilcox), Ларри Миллер (Adrian Beltz), Уильям Болл (Gen. Suitor), Джо Энн Диаринг (Margie Tanen), Джек Элам (Col. Dustin «Dusty» McHowell), Рой Дотрис (Zanuck), Тони Лонго (Knuckles), Майкл Фаустино (Mark Wilcox), Марк Колэуэй (Hutch), Лаура Муни (Theresa Wilcox), Деннис Бёркли (Deak), Луис Контрерас (Ringo), Денис Кумагаи (Kim), Ричард Нарита (Zukaki), Тони Эппер (Teeth), Кристофер Ним (Commander)
Сборы в США: $6 948 859
Зрители: США 1.65 млн , Испания 109.7 тыс.
Мировая премьера: 21 июня 1991
MPAA: - Детям до 13 лет просмотр не желателен

Описание: Халк Хоган, играет роль интергалактического героя по имени Шеп. Миссия атлетичного Шепа — исправлять и перевоспитывать плохих. У героя есть специальный силовой костюм, который делает его практически неуязвимым. Когда космический корабль Шепа ломается, он совершает вынужденную посадку на планету Земля.
Астронавт поселяется в пригороде, у семьи Уилкокс. Шеп отставляет силовой костюм дома, чтобы не привлекать внимания людей, и отправляется гулять по окрестностям, где он сразу обнаруживает несколько «плохишей». Это хамоватые разносчики газет, водители-лихачи и уличные грабители, которым Шеп преподаст суровый урок. Тем временем отец семейства обнаруживает силовой костюм астронавта и примеряет его…


Качество: WEBRip 1080p
Контейнер: MKV
Видео: AVC, 1920x1040 (1.85:1), 6333 kbps, 23.976 fps, 0.132 bpp
Аудио #1: русский /; AC3 /; 2.0 /; 48 kHz /; 192 kbps /; 16 bit; || MVO (СТС)
Аудио #2: русский /; AC3 /; 2.0 /; 48 kHz /; 192 kbps /; 16 bit; || MVO (НТВ)
Аудио #3: русский /; AC3 /; 2.0 /; 48 kHz /; 192 kbps /; 16 bit; || AVO (А. Гаврилов)
Субтитры: английские (SDH)

АНОНСЫ ПОПУЛЯРНЫХ РАЗДАЧ


Код:

General
Unique ID                                : 196966639027399147299148040610205264820 (0x942E6512957B1D249A0237160E49EBB4)
Complete name                            : E:\Мои рипы\Коммандо из пригорода.1991.WEBRip.1080p.2xMVO+AVO.mkv
Format                                   : Matroska
Format version                           : Version 4 / Version 2
File size                                : 4.37 GiB
Duration                                 : 1h 30mn
Overall bit rate                         : 6 909 Kbps
Movie name                               : SUBURBAN_COMMANDO_1991_WEB-DL_1080P -BLUEBIRD
Encoded date                             : UTC 2018-05-29 14:08:22
Writing application                      : mkvmerge v6.8.0 ('Theme for Great Cities') 32bit built on Mar  2 2014 21:27:07
Writing library                          : libebml v1.3.0 + libmatroska v1.4.1

Video
ID                                       : 1
Format                                   : AVC
Format/Info                              : Advanced Video Codec
Format profile                           : High@L4.1
Format settings, CABAC                   : Yes
Format settings, ReFrames                : 4 frames
Codec ID                                 : V_MPEG4/ISO/AVC
Duration                                 : 1h 30mn
Bit rate                                 : 6 333 Kbps
Width                                    : 1 920 pixels
Height                                   : 1 040 pixels
Display aspect ratio                     : 1.85:1
Frame rate mode                          : Constant
Frame rate                               : 23.976 fps
Color space                              : YUV
Chroma subsampling                       : 4:2:0
Bit depth                                : 8 bits
Scan type                                : Progressive
Bits/(Pixel*Frame)                       : 0.132
Stream size                              : 3.92 GiB (90%)
Writing library                          : x264 core 130 r2273 b3065e6
Encoding settings                        : cabac=1 / ref=4 / deblock=1:-3:-3 / analyse=0x3:0x113 / me=umh / subme=11 / psy=1 / psy_rd=1.00:0.15 / mixed_ref=1 / me_range=48 / chroma_me=1 / trellis=2 / 8x8dct=1 / cqm=0 / deadzone=21,11 / fast_pskip=0 / chroma_qp_offset=-4 / threads=6 / lookahead_threads=1 / sliced_threads=0 / nr=0 / decimate=0 / interlaced=0 / bluray_compat=0 / constrained_intra=0 / bframes=8 / b_pyramid=2 / b_adapt=2 / b_bias=0 / direct=2 / weightb=1 / open_gop=0 / weightp=2 / keyint=250 / keyint_min=23 / scenecut=40 / intra_refresh=0 / rc=2pass / mbtree=0 / bitrate=6333 / ratetol=1.0 / qcomp=0.60 / qpmin=0 / qpmax=69 / qpstep=4 / cplxblur=20.0 / qblur=0.5 / ip_ratio=1.40 / pb_ratio=1.30 / aq=2:1.00
Language                                 : English
Default                                  : Yes
Forced                                   : No
Color primaries                          : Generic film
Matrix coefficients                      : YCgCo

Audio #1
ID                                       : 2
Format                                   : AC-3
Format/Info                              : Audio Coding 3
Mode extension                           : CM (complete main)
Format settings, Endianness              : Big
Codec ID                                 : A_AC3
Duration                                 : 1h 30mn
Bit rate mode                            : Constant
Bit rate                                 : 192 Kbps
Channel(s)                               : 2 channels
Channel positions                        : Front: L R
Sampling rate                            : 48.0 KHz
Bit depth                                : 16 bits
Compression mode                         : Lossy
Stream size                              : 124 MiB (3%)
Title                                    : MVO [CTC]
Language                                 : Russian
Default                                  : Yes
Forced                                   : No

Audio #2
ID                                       : 3
Format                                   : AC-3
Format/Info                              : Audio Coding 3
Mode extension                           : CM (complete main)
Format settings, Endianness              : Big
Codec ID                                 : A_AC3
Duration                                 : 1h 30mn
Bit rate mode                            : Constant
Bit rate                                 : 192 Kbps
Channel(s)                               : 2 channels
Channel positions                        : Front: L R
Sampling rate                            : 48.0 KHz
Bit depth                                : 16 bits
Compression mode                         : Lossy
Stream size                              : 124 MiB (3%)
Title                                    : MVO [HTB]
Language                                 : Russian
Default                                  : No
Forced                                   : No

Audio #3
ID                                       : 4
Format                                   : AC-3
Format/Info                              : Audio Coding 3
Mode extension                           : CM (complete main)
Format settings, Endianness              : Big
Codec ID                                 : A_AC3
Duration                                 : 1h 30mn
Bit rate mode                            : Constant
Bit rate                                 : 192 Kbps
Channel(s)                               : 2 channels
Channel positions                        : Front: L R
Sampling rate                            : 48.0 KHz
Bit depth                                : 16 bits
Compression mode                         : Lossy
Stream size                              : 124 MiB (3%)
Title                                    : AO [A.Gavrilov]
Language                                 : Russian
Default                                  : No
Forced                                   : No

Text
ID                                       : 5
Format                                   : UTF-8
Codec ID                                 : S_TEXT/UTF8
Codec ID/Info                            : UTF-8 Plain Text
Title                                    : SDH
Language                                 : English
Default                                  : No
Forced                                   : No






Скачать Коммандо.из.пригорода.Suburban.Commando.(Берт.Кеннеди).[1991.фантастика.боевик.комедия.WEBRip].[1080p].2x[MVO.(СТС.НТВ)].+.[AVO.(А.Гаврилов)].[R.G.Goldenshara].torrent без регистрации
Золото ЗОЛОТАЯ РАЗДАЧА! СКАЧАННОЕ НЕ ЗАСЧИТЫВАЕТСЯ! Золото
Дата: Зарегистрирован   [ Тип: внутренний ] Как тут cкачать?
MAGNET ссылка
MAGNET ссылка


Скачать .torrent

11 KB

Статус: проверено DHT
Скачан: торрент - 47 раз, раздача полностью - 11 раз
Размер: 4,37 GB
Оценка:  5 (Голосов: 4)
Поблагодарили: 4
Поделиться ссылкой на эту раздачу с друзьями:
В контактеFacebookОдноклассникиTwitterLivejournalМой МирLiveinternet
 

 
Показать сообщения:    


Вы не можете начинать темы
Вы не можете отвечать на сообщения
Вы не можете редактировать свои сообщения
Вы не можете удалять свои сообщения
Вы не можете голосовать в опросах
Вы не можете прикреплять файлы к сообщениям
Вы можете скачивать файлы