Loading...
Error

Скачать Хан Соло: Звёздные Войны. Истории / Solo: A Star Wars Story (Рон Ховард) [2018, фантастика, фэнтези, боевик, приключения, BDRip 720p] [ENG] торрент без регистрации

Статистика раздачи
Размер:  8,17 GB   |    Скачан:  116 раз
Сидов:  1  [  269 KB/s  ]  
 
 
 
Автор Сообщение

leon030982

[] 

Хан Соло: Звёздные Войны. Истории / Solo: A Star Wars Story


Год выпуска: 2018
Жанр: фантастика, фэнтези, боевик, приключения
Выпущено: США
Продолжительность: 02:14:15
Перевод: Отсутствует! [английский оригинал]
Субтитры: english

Режиссер: Рон Ховард

В ролях: Олден Эренрайк, Йонас Суотамо, Вуди Харрельсон, Эмилия Кларк, Дональд Гловер, Тэнди Ньютон, Фиби Уоллер-Бридж, Пол Беттани, Джон Фавро, Линда Хант

О фильме: Фильм расскажет о похождениях юного космического сорвиголовы Хана Соло и его верного напарника Чубакки и о том, как они стали самыми быстрыми пилотами и самыми хитрыми контрабандистами далёкой Галактики.



Качество: BDRip 720p
Формат: MKV
Видео: MPEG4 AVC, 1280x536, 7166 kb/s, 23.976 fps
Аудио: DTS, 6 ch, 1509 Кбит/с [Eng]
General
Unique ID : 159668577304244501655786339975221753310 (0x781F0CA6D75B6B4C5B4F5EC3BBC435DE)
Complete name : E:\Solo.A.Star.Wars.Story.2018.720p.BluRay.x264.DTS-HDC\Solo.A.Star.Wars.Story.2018.720p.BluRay.x264.DTS-HDC.mkv
Format : Matroska
Format version : Version 4 / Version 2
File size : 8.17 GiB
Duration : 2 h 14 min
Overall bit rate : 8 678 kb/s
Movie name : Solo.A.Star.Wars.Story.2018.720p.BluRay.x264.DTS-HDC
Encoded date : UTC 2018-09-09 16:54:58
Writing application : mkvmerge v26.0.0 ('In The Game') 64-bit
Writing library : libebml v1.3.6 + libmatroska v1.4.9
Cover : Yes
Attachments : small_cover.jpg / small_cover_land.jpg / cover.jpg / cover_land.jpg

Video
ID : 1
Format : AVC
Format/Info : Advanced Video Codec
Format profile : High@L4.1
Format settings : CABAC / 12 Ref Frames
Format settings, CABAC : Yes
Format settings, RefFrames : 12 frames
Codec ID : V_MPEG4/ISO/AVC
Duration : 2 h 14 min
Bit rate : 7 200 kb/s
Width : 1 280 pixels
Height : 536 pixels
Display aspect ratio : 2.40:1
Frame rate mode : Constant
Frame rate : 23.976 (24000/1001) FPS
Color space : YUV
Chroma subsampling : 4:2:0
Bit depth : 8 bits
Scan type : Progressive
Bits/(Pixel*Frame) : 0.438
Stream size : 6.59 GiB (81%)
Title : Solo.A.Star.Wars.Story.2018.720p.BluRay.x264.DTS-HDC
Writing library : x264 core 152 r2851kMod ba24899
Encoding settings : cabac=1 / ref=12 / deblock=1:-3:-3 / analyse=0x3:0x133 / me=umh / subme=11 / psy=1 / fade_compensate=0.00 / psy_rd=1.10:0.00 / mixed_ref=1 / me_range=48 / chroma_me=1 / trellis=2 / 8x8dct=1 / cqm=0 / deadzone=21,11 / fast_pskip=0 / chroma_qp_offset=-2 / threads=12 / lookahead_threads=2 / sliced_threads=0 / nr=0 / decimate=0 / interlaced=0 / bluray_compat=0 / constrained_intra=0 / bframes=8 / b_pyramid=2 / b_adapt=2 / b_bias=0 / direct=3 / weightb=1 / open_gop=0 / weightp=2 / keyint=240 / keyint_min=2 / scenecut=40 / intra_refresh=0 / rc_lookahead=0 / rc=2pass / mbtree=0 / bitrate=7200 / ratetol=1.0 / qcomp=0.70 / qpmin=0 / qpmax=69 / qpstep=4 / cplxblur=20.0 / qblur=0.5 / vbv_maxrate=50000 / vbv_bufsize=30000 / nal_hrd=none / filler=0 / ip_ratio=1.30 / pb_ratio=1.20 / aq=3:0.90
Default : Yes
Forced : No

Audio
ID : 2
Format : DTS
Format/Info : Digital Theater Systems
Mode : 16
Format settings, Endianness : Big
Codec ID : A_DTS
Duration : 2 h 14 min
Bit rate mode : Constant
Bit rate : 1 509 kb/s
Channel(s) : 6 channels
Channel positions : Front: L C R, Side: L R, LFE
Sampling rate : 48.0 kHz
Frame rate : 93.750 FPS (512 SPF)
Bit depth : 24 bits
Compression mode : Lossy
Stream size : 1.42 GiB (17%)
Title : Solo.A.Star.Wars.Story.2018.720p.BluRay.x264.DTS-HDC
Language : English
Default : Yes
Forced : No

Text
ID : 3
Format : UTF-8
Codec ID : S_TEXT/UTF8
Codec ID/Info : UTF-8 Plain Text
Language : English
Default : Yes
Forced : No

Menu
00:00:00.000 : en:Opening Credits
00:00:53.845 : en:Streets of Corellia
00:02:10.213 : en:Qi'ra
00:03:53.150 : en:Den of The White Worms
00:06:00.485 : en:Corellian Speeder Chase
00:09:27.567 : en:Coronet Spaceport
00:13:16.045 : en:Recruitment
00:14:14.020 : en:Mimban Battlefield
00:16:12.263 : en:None-of-Your-Business Company
00:19:45.101 : en:The Beast
00:22:43.821 : en:Mimban Escape
00:24:37.267 : en:Vandor
00:27:00.035 : en:Camfire Stories
00:30:02.926 : en:Conveyex Heist
00:32:54.681 : en:Marauder Attack
00:39:09.764 : en:"You're in This Life For Good"
00:41:59.225 : en:The Yacht
00:43:20.181 : en:Dryden Vos
00:44:32.128 : en:Reunion
00:48:03.756 : en:Deal with Crimson Dawn
00:51:58.324 : en:The Lodge
00:53:17.528 : en:Full Sabacc
00:57:23.523 : en:Lando and L3
01:00:16.780 : en:Millennium Falcon
01:02:40.882 : en:"Buckle Up, Baby"
01:04:51.262 : en:"People Are Predictable"
01:05:29.509 : en:Han and Qi'ra
01:07:12.028 : en:"Trust No One"
01:08:05.915 : en:Not Cpmpatible
01:10:00.113 : en:Arrival on Kessel
01:12:44.193 : en:Into the Mines
01:14:40.851 : en:Revolt
01:18:30.873 : en:Kessel Shootout
01:23:15.741 : en:Into the Maelstrom
01:26:32.646 : en:Kessel Run
01:30:33.136 : en:Escaping the Maw
01:35:19.672 : en:Savareen
01:37:04.861 : en:The Good Guy
01:38:52.802 : en:Marauders Return
01:41:18.531 : en:Enfys Nest
01:43:02.676 : en:One Last Score
01:45:27.821 : en:The Delivery
01:46:32.177 : en:Explosive Stuff
01:49:45.996 : en:Double-Crossings
01:53:33.890 : en:Duel with Dryden
01:57:13.902 : en:Secret Leader
01:58:55.128 : en:Showdown
02:01:34.829 : en:Rebellion's Dawn
02:03:20.893 : en:Sabacc Rematch
02:06:09.353 : en:End Credits
02:14:30.000 : en:HDChina



Скачать Хан.Соло.Звёздные.Войны.Истории.Solo.A.Star.Wars.Story.(Рон.Ховард).[2018.фантастика.фэнтези.боевик.приключения.BDRip.720p].[ENG].torrent без регистрации
Золото ЗОЛОТАЯ РАЗДАЧА! СКАЧАННОЕ НЕ ЗАСЧИТЫВАЕТСЯ! Золото
Дата: Зарегистрирован   [ Тип: внутренний ] Как тут cкачать?
MAGNET ссылка
MAGNET ссылка


Скачать .torrent

82 KB

Статус: проверено DHT
Скачан: торрент - 116 раз, раздача полностью - 38 раз
Размер: 8,17 GB
Оценка:  5 (Голосов: 1)
Поблагодарили: 2
Поделиться ссылкой на эту раздачу с друзьями:
В контактеFacebookОдноклассникиTwitterLivejournalМой МирLiveinternet
 

 
Показать сообщения:    


Вы не можете начинать темы
Вы не можете отвечать на сообщения
Вы не можете редактировать свои сообщения
Вы не можете удалять свои сообщения
Вы не можете голосовать в опросах
Вы не можете прикреплять файлы к сообщениям
Вы можете скачивать файлы