Loading...
Error

Скачать Не отступать и не сдаваться / No Retreat, No Surrender (Кори Юэнь) [1986, боевик, драма, комедия, криминал, BDRip] [1080p] 2x[DVO (НТВ+, СТС)] + [AVO (МОСФИЛЬМ, Сергей Мартынов)] [R.G. Goldenshara] торрент без регистрации

Статистика раздачи
Размер:  4,37 GB   |    Скачан:  67 раз
Сидов:  1  [  0 KB/s  ]  
 
 
 
Автор Сообщение

sobmaster

[] 



Не отступать и не сдаваться
No Retreat, No Surrender




Год выпуска: 1986
Страна: США , Гонконг
Выпущено: Balcor Film Investors, New World Pictures, Seasonal Film Corporation
Слоган: «Tonight, He either fights for his life or he'll be running for the rest of it»
Жанр: боевик, драма, комедия, криминал

Продолжительность: 01:38:49
Перевод #1: Профессиональный (двухголосый, закадровый) (НТВ+, перевод Игоря Ильинского, текст читали Ольга Голованова, Александр Воронов)
Перевод #2: Профессиональный (двухголосый, закадровый) (СТС)
Перевод #3: Авторский (одноголосый, закадровый) (МОСФИЛЬМ 1990г, литературный перевод Якова Храсова, редактор Ольга Палатникова, текст читал Сергей Мартынов, «советский кинопрокатный»)
Режиссер: Кори Юэнь
Сценарий: Кит У. Стрэндберг, Нг Сиюэнь, Кори Юэнь
Продюсер: Нг Сиюэнь
Оператор: Дэвид Голиа, Джон Хьюнек
Композитор: Пол Гилрит, Фрэнк Харрис
Монтаж: Хунг Пун
В ролях:


Курт МакКинни (Jason Stillwell), Жан-Клод Ван Дамм (Ivan Kraschinsky the Russian), Дж.В. У. (R.J. Madison), Кэти Сайлено (Kelly Reilly), Таи Чунг Ким (Sensei Lee), Кент Липэм (Scott), Рон Понел (Ian Reilly), Дэйл Джейкоби (Dean Ramsay), Питер Каннингэм (Frank Peters), Тимоти Д. Бэйкер (Tom Stillwell), Кит У. Стрэндберг (Bar Thug #4), Мишель Красну (Karate Student), Рэй-Филлип Сантос (Karate Student)
Роли дублировали: Александр Рахленко (Jason Stillwell), Алексей Иващенко (Ivan Kraschinsky the Russian), Сергей Чекан (R.J. Madison)
Сборы в США: $4 662 137
Зрители: США 1.26 млн
Мировая премьера: 2 мая 1986
MPAA: - Детям до 13 лет просмотр не желателен

Описание: Парнишка, изучающий восточные единоборства и мечтающий стать чемпионом, бесстрашно вступает в борьбу с уголовниками и шпаной и зарабатывает сперва лишь синяки и насмешки окружающих.
Но в награду за проявленную силу духа, настойчивость и упорную работу на тренировках до седьмого пота, ему начинает покровительствовать и обучать его всем секретам мастерства дух самого Брюса Ли. И, сразившись в большом турнире с грозным русским противником, молодой американский кикбоксер сенсационно, вопреки ожиданиям зрителей и прогнозам специалистов, побеждает.


Качество: BDRip 1080p
Контейнер: MKV
Видео: AVC, 1920x1036 (1.85:1), 5738 kbps, 23.976 fps, 0.120 bpp
Аудио #1: русский /; AC3 /; 2.0 /; 48 kHz /; 192 kbps /; 16 bit; || DVO (НТВ+)
Аудио #2: русский /; AC3 /; 2.0 /; 48 kHz /; 192 kbps /; 16 bit; || DVO (СТС)
Аудио #3: русский /; AC3 /; 2.0 /; 48 kHz /; 192 kbps /; 16 bit; || AVO (Сергей Мартынов)
Субтитры #1: русские (НТВ+)
Субтитры #2: русские (Мосфильм)
Навигация по главам: есть

АНОНСЫ ПОПУЛЯРНЫХ РАЗДАЧ

  • Полная версия фильма имеет хронометраж 99 минут.
  • Фильм посвящён памяти Брюса Ли.
  • Постановщиком боёв был «Харрисон» Манг Хой.
  • Существуют 3 версии фильма: основная американская (85 минут), британская VHS-видеоверсия 1986 года (79 минут) и полная британская DVD-видеоверсия (94 минуты).
  • На момент релиза Жан-Клод Ван Дамм был ещё неизвестным актером. Его гонорар составил $250.

Код:

General
Unique ID                                : 245407716267303048112208410820628230834 (0xB89FCE933EDB5982A50F9F6503A4B2B2)
Complete name                            : E:\Мои рипы\Не отступать и не сдаваться.1986.BDRip.1080p.2xMVO+AVO.mkv
Format                                   : Matroska
Format version                           : Version 4 / Version 2
File size                                : 4.37 GiB
Duration                                 : 1h 39mn
Overall bit rate                         : 6 318 Kbps
Movie name                               : No Retreat, No Surrender_1986г_Kurt Robin McKinney & J.W. Fails & Peter_[Sugarfoot]_Cunningham & Kim Tai-chung_(Kim Tai-jong)_Tong Lung_(June 5, 1957 – August 27, 2011)_
Encoded date                             : UTC 2018-06-06 13:41:37
Writing application                      : mkvmerge v6.8.0 ('Theme for Great Cities') 32bit built on Mar  2 2014 21:27:07
Writing library                          : libebml v1.3.0 + libmatroska v1.4.1

Video
ID                                       : 1
Format                                   : AVC
Format/Info                              : Advanced Video Codec
Format profile                           : High@L4.1
Format settings, CABAC                   : Yes
Format settings, ReFrames                : 4 frames
Codec ID                                 : V_MPEG4/ISO/AVC
Duration                                 : 1h 39mn
Bit rate                                 : 5 738 Kbps
Width                                    : 1 920 pixels
Height                                   : 1 036 pixels
Display aspect ratio                     : 1.85:1
Frame rate mode                          : Constant
Frame rate                               : 23.976 fps
Color space                              : YUV
Chroma subsampling                       : 4:2:0
Bit depth                                : 8 bits
Scan type                                : Progressive
Bits/(Pixel*Frame)                       : 0.120
Stream size                              : 3.89 GiB (89%)
Writing library                          : x264 core 130 r2273 b3065e6
Encoding settings                        : cabac=1 / ref=4 / deblock=1:-3:-3 / analyse=0x3:0x113 / me=umh / subme=11 / psy=1 / psy_rd=1.00:0.15 / mixed_ref=1 / me_range=48 / chroma_me=1 / trellis=2 / 8x8dct=1 / cqm=0 / deadzone=21,11 / fast_pskip=0 / chroma_qp_offset=-4 / threads=6 / lookahead_threads=1 / sliced_threads=0 / nr=0 / decimate=0 / interlaced=0 / bluray_compat=0 / constrained_intra=0 / bframes=8 / b_pyramid=2 / b_adapt=2 / b_bias=0 / direct=2 / weightb=1 / open_gop=0 / weightp=2 / keyint=250 / keyint_min=23 / scenecut=40 / intra_refresh=0 / rc=2pass / mbtree=0 / bitrate=5738 / ratetol=1.0 / qcomp=0.60 / qpmin=0 / qpmax=69 / qpstep=4 / cplxblur=20.0 / qblur=0.5 / ip_ratio=1.40 / pb_ratio=1.30 / aq=2:1.00
Language                                 : English
Default                                  : Yes
Forced                                   : No
Color primaries                          : Generic film
Matrix coefficients                      : YCgCo

Audio #1
ID                                       : 2
Format                                   : AC-3
Format/Info                              : Audio Coding 3
Mode extension                           : CM (complete main)
Format settings, Endianness              : Big
Codec ID                                 : A_AC3
Duration                                 : 1h 39mn
Bit rate mode                            : Constant
Bit rate                                 : 192 Kbps
Channel(s)                               : 2 channels
Channel positions                        : Front: L R
Sampling rate                            : 48.0 KHz
Bit depth                                : 16 bits
Compression mode                         : Lossy
Stream size                              : 136 MiB (3%)
Title                                    : |DVO, НТВ+_Перевод Игоря Ильинского, текст читали: Ольга Голованова & Александр Воронов|
Language                                 : Russian
Default                                  : Yes
Forced                                   : No

Audio #2
ID                                       : 3
Format                                   : AC-3
Format/Info                              : Audio Coding 3
Mode extension                           : CM (complete main)
Format settings, Endianness              : Big
Codec ID                                 : A_AC3
Duration                                 : 1h 39mn
Bit rate mode                            : Constant
Bit rate                                 : 192 Kbps
Channel(s)                               : 2 channels
Channel positions                        : Front: L R
Sampling rate                            : 48.0 KHz
Bit depth                                : 16 bits
Compression mode                         : Lossy
Stream size                              : 136 MiB (3%)
Title                                    : |DVO, СТС|
Language                                 : Russian
Default                                  : No
Forced                                   : No

Audio #3
ID                                       : 4
Format                                   : AC-3
Format/Info                              : Audio Coding 3
Mode extension                           : CM (complete main)
Format settings, Endianness              : Big
Codec ID                                 : A_AC3
Duration                                 : 1h 39mn
Bit rate mode                            : Constant
Bit rate                                 : 192 Kbps
Channel(s)                               : 2 channels
Channel positions                        : Front: L R
Sampling rate                            : 48.0 KHz
Bit depth                                : 16 bits
Compression mode                         : Lossy
Stream size                              : 136 MiB (3%)
Title                                    : |МОСФИЛЬМ_1990г, Литературный перевод Якова Храсова, редактор: Ольга Палатникова, текст читал: Сергей Мартынов, «советский кинопрокатный»|
Language                                 : Russian
Default                                  : No
Forced                                   : No

Text #1
ID                                       : 5
Format                                   : UTF-8
Codec ID                                 : S_TEXT/UTF8
Codec ID/Info                            : UTF-8 Plain Text
Title                                    : DVO, НТВ+
Language                                 : Russian
Default                                  : No
Forced                                   : No

Text #2
ID                                       : 6
Format                                   : UTF-8
Codec ID                                 : S_TEXT/UTF8
Codec ID/Info                            : UTF-8 Plain Text
Title                                    : Мосфильм, Сергей Мартынов
Language                                 : Russian
Default                                  : No
Forced                                   : No

Menu
00:00:00.000                             : en:Chapter 1
00:09:20.977                             : en:Chapter 2
00:15:27.927                             : en:Chapter 3
00:26:10.694                             : en:Chapter 4
00:37:15.149                             : en:Chapter 5
00:45:49.204                             : en:Chapter 6
00:53:45.096                             : en:Chapter 7
01:01:32.647                             : en:Chapter 8
01:10:15.377                             : en:Chapter 9
01:17:44.618                             : en:Chapter 10
01:26:39.152                             : en:Chapter 11
01:36:56.894                             : en:Chapter 12
01:39:07.650                             : en:Chapter 13






Скачать Не.отступать.и.не.сдаваться.No.Retreat.No.Surrender.(Кори.Юэнь).[1986.боевик.драма.комедия.криминал.BDRip].[1080p].2x[DVO.(НТВ+.СТС)].+.[AVO.(МОСФИЛЬМ.Сергей.Мартынов)].[R.G.Goldenshara].torrent без регистрации
Золото ЗОЛОТАЯ РАЗДАЧА! СКАЧАННОЕ НЕ ЗАСЧИТЫВАЕТСЯ! Золото
Дата: Зарегистрирован   [ Тип: внутренний ] Как тут cкачать?
MAGNET ссылка
MAGNET ссылка


Скачать .torrent

11 KB

Статус: проверено DHT
Скачан: торрент - 67 раз, раздача полностью - 30 раз
Размер: 4,37 GB
Оценка:  5 (Голосов: 4)
Поблагодарили: 8
Поделиться ссылкой на эту раздачу с друзьями:
В контактеFacebookОдноклассникиTwitterLivejournalМой МирLiveinternet
 

 

Голден Шура

[] 

Старенькие фильмы с Ваней - это здорово! ay
sobmaster, а ты всю фильмографию с ЖКВД будешь делать?
 

sobmaster

[] 

Да, хочу сделать всю коллекцию, но пока не хватает двух исходников, хотя релизы на блю-рэй уже вышли...
Потом соберу всё в общий пак и выложу одной раздачей...
 
Показать сообщения:    


Вы не можете начинать темы
Вы не можете отвечать на сообщения
Вы не можете редактировать свои сообщения
Вы не можете удалять свои сообщения
Вы не можете голосовать в опросах
Вы не можете прикреплять файлы к сообщениям
Вы можете скачивать файлы