Loading...
Error

Скачать Наследники / Succession (Сезон 01, серии 01-05 из 10) (Марк Майлод, Адам Аркин, Адам МакКей) [2018, драма, WEB-DL] [1080p] [MVO] (FilmsClub) + [Original] + [Sub] Eng торрент без регистрации

Статистика раздачи
Размер:  27,58 GB   |    Скачан:  98 раз

Полного источника не было: Никогда

 
 
 
Автор Сообщение

leon030982

[] 

Наследники | Succession
Год выпуска: 2018
Страна: США
Жанр: драма
Продолжительность: ~ 00:59:00
Перевод: Профессиональный (многоголосый закадровый) | FilmsClub

Режиссёр: Марк Майлод, Адам Аркин, Адам МакКей

В ролях: Хиам Аббасс, Брайан Кокс, Киран Калкин, Алан Рак, Сара Снук, Джереми Стронг, Келли П. Уильямс, Николас Браун, Дагмара Доминчик, Эшли Цукерман и др.

Описание: Логан Рой — могущественный, но стареющий глава международного медийного конгломерата Waystar Royco. В будущем правление компанией должен принять старший сын, но прежде всей семье придется пережить интриги, предательство и неприкрытую борьбу за власть.



Качество: WEB-DL 1080p
Формат: MKV
Видео: 1920x1080 (16:9) | X264/MPEG4-AVC | ~13000 kbps | 23.976 fps
Аудио 1: AC3 | 48 KHz | 5.1 (Front: L С R Side: L R) + LFE | ~384 kbps [RUS]
Аудио 2: E-AC3 | 48 KHz | 5.1 (Front: L С R Side: L R) + LFE | ~640 kbps [ENG]
Субтитры: английские
General
Unique ID : 170940933367746460674930102831631839619 (0x809A06B6F90ECE299FCFABFEB2C83183)
Complete name : E:\Succession.S01.1080p.films.club\Succession.S01E01.1080p.WEB-DL.DDP5.1.H.264-.mkv
Format : Matroska
Format version : Version 4 / Version 2
File size : 6.06 GiB
Duration : 1 h 1 min
Overall bit rate : 14.0 Mb/s
Encoded date : UTC 2018-06-09 21:29:05
Writing application : mkvmerge v18.0.0 ('Apricity') 64-bit
Writing library : libebml v1.3.5 + libmatroska v1.4.8

Video
ID : 1
Format : AVC
Format/Info : Advanced Video Codec
Format profile : High@L4
Format settings : CABAC / 4 Ref Frames
Format settings, CABAC : Yes
Format settings, RefFrames : 4 frames
Codec ID : V_MPEG4/ISO/AVC
Duration : 1 h 1 min
Bit rate : 12.7 Mb/s
Width : 1 920 pixels
Height : 1 080 pixels
Display aspect ratio : 16:9
Frame rate mode : Constant
Frame rate : 23.976 (24000/1001) FPS
Color space : YUV
Chroma subsampling : 4:2:0
Bit depth : 8 bits
Scan type : Progressive
Bits/(Pixel*Frame) : 0.256
Stream size : 5.50 GiB (91%)
Default : Yes
Forced : No
Color range : Limited
Color primaries : BT.709
Transfer characteristics : BT.709
Matrix coefficients : BT.709

Audio #1
ID : 2
Format : AC-3
Format/Info : Audio Coding 3
Format settings, Endianness : Big
Codec ID : A_AC3
Duration : 1 h 1 min
Bit rate mode : Constant
Bit rate : 384 kb/s
Channel(s) : 6 channels
Channel positions : Front: L C R, Side: L R, LFE
Sampling rate : 48.0 kHz
Frame rate : 31.250 FPS (1536 SPF)
Bit depth : 16 bits
Compression mode : Lossy
Stream size : 170 MiB (3%)
Title : films.club
Language : Russian
Service kind : Complete Main
Default : Yes
Forced : No

Audio #2
ID : 3
Format : E-AC-3
Format/Info : Enhanced Audio Coding 3
Format settings, Endianness : Big
Codec ID : A_EAC3
Duration : 1 h 1 min
Bit rate mode : Constant
Bit rate : 640 kb/s
Channel(s) : 6 channels
Channel positions : Front: L C R, Side: L R, LFE
Sampling rate : 48.0 kHz
Frame rate : 187.500 FPS (256 SPF)
Compression mode : Lossy
Delay relative to video : 12 ms
Stream size : 283 MiB (5%)
Title : original
Language : English
Service kind : Complete Main
Default : No
Forced : No

Text #1
ID : 4
Format : UTF-8
Codec ID : S_TEXT/UTF8
Codec ID/Info : UTF-8 Plain Text
Title : English
Language : English
Default : No
Forced : No

Text #2
ID : 5
Format : UTF-8
Codec ID : S_TEXT/UTF8
Codec ID/Info : UTF-8 Plain Text
Title : English (SDH)
Language : English
Default : No
Forced : No
Когда раздача ведётся путём добавления новых серий, при каждом добавлении создётся новый торрент. Чтобы начать докачку новой серии, пользователям необходимо сделать следующее:
(1) остановить скачивание,
(2) удалить старый торрент у себя из клиента (старые серии удалять не надо),
(3) скачать новый торрент и запустить его у себя в клиенте вместо старого, при этом указать клиенту путь в старую папку, куда и должно происходить скачивание новых серий.
Ваш клиент при этом должен произвести хеширование (проверку) старой папки (если не производит сам - помогите ему сделать это), и будет докачивать только те серии, которых у вас ещё нет. Старые серии при этом не удаляются, а продолжают раздаваться!
Eсли вы уже удалили старые серии, то предотвратить повторную закачку старых серий можно, отжав галочку в соответсвующих местах при запуске нового торрента. По возможности, желательно не удалять старые серии как можно дольше, чтобы релизёр не столько продолжал раздавать старые серии, а смог сконцентрироваться на новых.



Скачать Наследники.Succession.(Сезон.01.серии.01-05.из.10).(Марк.Майлод.Адам.Аркин.Адам.МакКей).[2018.драма.WEB-DL].[1080p].[MVO].(FilmsClub).+.[Original].+.[Sub].Eng.torrent без регистрации
Золото ЗОЛОТАЯ РАЗДАЧА! СКАЧАННОЕ НЕ ЗАСЧИТЫВАЕТСЯ! Золото
Дата: Зарегистрирован   [ Тип: внутренний ] Как тут cкачать?
MAGNET ссылка
MAGNET ссылка


Скачать .torrent

70 KB

Статус: проверено
Скачан: торрент - 98 раз, раздача полностью - 0 раз
Размер: 27,58 GB
Оценка:  - (Голосов: 0)
Поблагодарили: 0
Поделиться ссылкой на эту раздачу с друзьями:
В контактеFacebookОдноклассникиTwitterLivejournalМой МирLiveinternet
 

 
Показать сообщения:    


Вы не можете начинать темы
Вы не можете отвечать на сообщения
Вы не можете редактировать свои сообщения
Вы не можете удалять свои сообщения
Вы не можете голосовать в опросах
Вы не можете прикреплять файлы к сообщениям
Вы можете скачивать файлы