Loading...
Error

Скачать Диктаторы. Тайны великих Вождей (1-9 серий из 9) (Василий Пичулин, Александр Иванкин, Артем Чащихин-Тоизде, Денис Трофимов, Александр Сидоров, Андрей Нянькин) [2003-2004, Документальный, познавательный, история, фашизм, биография, политика, DVDRip] торрент без регистрации

Статистика раздачи
Размер:  4,76 GB   |    Скачан:  60 раз
Сидов:  1  [  0 KB/s  ]  
 
 
 
Автор Сообщение

leon030982

[] 

Диктаторы. Тайны великих Вождей
Год выпуска: 2003 - 2004
Страна: Россия
Производство: кинокомпания "DIXI", ООО "Караван-Арт", ЗАО "Совершенно секретно - Телеком", ООО "TVист", Телеканал "Россия", ООО Компания "Ориент групп"
Жанр: Документальный, познавательный, история, фашизм, биография, политика
Продолжительность: 9 х ~ 00:44:00
Перевод: Не требуется
субтитры: нет

Режиссеры: Василий Пичулин, Александр Иванкин, Артем Чащихин-Тоизде, Денис Трофимов, Александр Сидоров, Андрей Нянькин, Любовь Егорова

Описание: Иосиф Сталин, Адольф Гитлер, Мао Цзе-Дун, Ким Ир Сен, Бенито Муссолини, Иосип Броз Тито. Жизнь этих великих политиков прошлого полна тайн и загадок. Некоторые "белые пятна" в биографии этих людей наводят на размышления и по сей день...

качество: DVDRip (исходник DVD9)
формат: AVI
видеокодек: XviD
аудиокодек: MP3
Видео: MPEG-4 Visual, XviD, 640 х 480 (4:3), 25,000 кадров/сек, 1600 Кбит/сек, 0.208 бит/пиксель
Аудио: MP3, 48,0 КГц, 128 Кбит/сек, 2 канала

Rip by shibay9, релиз-группа
1. Сталин, некоторые страницы личной жизни 3 серии
Совсем недавно были рассекречены документы, проливающие свет на жизнь Иосифа Джугашвили, которая, как выясняется теперь, весьма отличается от жизни "отца всех народов" товарища Сталина. О "тайной жизни" вождя рассказывают в фильме его дочь Светлана, внуки - Александр и Галина, пасынок Артем Сергеев, зять Юрий Жданов (второй муж Светланы Аллилуевой, сын того самого Андрея Жданова), племянница Кира Политковская. А еще - последний начальник личной охраны Сталина и врач-патологоанатом, вскрывавший тело умершего диктатора.

2. Убить Гитлера 2 серии
История покушений на фюрера насчитывает более 50 случаев. Но все попытки потерпели неудачу. Можно ли считать подобные факты случайностью? Или это провидение, в которое свято верил самый главный фашистский преступник? Ведь Гитлер держал в руках историческое "Копье судьбы", по легенде, приносящее невиданную удачу.

3. Две жизни председателя Мао
Личность Мао Цзе-Дуна ужасает и одновременно интригует. Простой народ считал его скромным и мудрым. А каким он был в действительности? Тот, кто публично отказался от своего погибшего сына. Тот, кто добыл для Китая атомную бомбу и, начал культурную революцию, утопил страну в крови. Тот, кто вверг государство в пучину экономической катастрофы. Кто он?

4. Тайны великих вождей. Корейский рубеж
Этот фильм раскрывает тайны, которые до сих пор хранит Корейский полуостров. Зрители узнают, по какой причине полвека назад в Корее образовалось два государства - на севере и на юге, каким образом появился один из самых загадочных лидеров в истории 20 века - Ким Ир Сен, чем на самом деле была корейская война, ставшая третьей по масштабности войной ХХ века.

5. Бенито Муссолини. Частные хроники
Он научился читать в четыре года. В пять - уже играл на скрипке. Написал весьма известный в свое время роман. Имел бессчетное количество любовных историй. "Первый фашист Европы", он презирал Гитлера, но делал то же, что и Гитлер. Он предавал подруг и друзей, он расстрелял собственного зятя... Кровавая игра за власть над миром и для Муссолини, и для Гитлера закончилась почти одновременно: фюрера не стало через два дня после того, как был расстрелян дуче. Но помнят их по-разному - быть может, оттого, что в Муссолини было больше человеческого.

6. Загадки Тито
В 1948 году произошел разрыв советско-югославских отношений, поставивший две страны соцлагеря на грань вооруженного конфликта. Стремление послевоенной Югославии выйти из-под "опеки" Кремля и превратиться в солидную западную державу выводило Сталина из себя. Но лидера Югославской партии активно поддерживали США и Великобритания. Подробности взаимоотношений двух стран до сих пор остаются нераскрытыми
Общее
Полное имя : E:\torrent\Диктаторы. Тайны великих вождей\04.Убить Гитлера.1921-1945.(1 серия из 2).Копье судьбы.2004.DVDRip.avi
Формат : AVI
Формат/Информация : Audio Video Interleave
Размер файла : 548 Мбайт
Продолжительность : 44 м.
Общий поток : 1738 Кбит/сек
Программа кодирования : VirtualDubMod 1.5.10.3 | www.virtualdub-fr.org || (build 2550/release)
Библиотека кодирования : VirtualDubMod build 2550/release

Видео
Идентификатор : 0
Формат : MPEG-4 Visual
Профиль формата : Advanced Simple@L5
Параметр BVOP формата : 2
Параметр QPel формата : Нет
Параметр GMC формата : Без точки перехода
Параметр матрицы формата : Default (H.263)
Идентификатор кодека : XVID
Идентификатор кодека/Подсказка : XviD
Продолжительность : 44 м.
Битрейт : 1600 Кбит/сек
Ширина : 640 пикселей
Высота : 480 пикселей
Соотношение сторон : 4:3
Частота кадров : 25,000 кадров/сек
Цветовое пространство : YUV
Субдискретизация насыщенности : 4:2:0
Битовая глубина : 8 бит
Тип развёртки : Прогрессивная
Метод сжатия : С потерями
Бит/(Пиксели*Кадры) : 0.208
Размер потока : 505 Мбайт (92%)
Библиотека кодирования : XviD 65

Аудио
Идентификатор : 1
Формат : MPEG Audio
Версия формата : Version 1
Профиль формата : Layer 3
Идентификатор кодека : 55
Идентификатор кодека/Подсказка : MP3
Продолжительность : 44 м.
Вид битрейта : Постоянный
Битрейт : 128 Кбит/сек
Каналы : 2 канала
Частота : 48,0 КГц
Метод сжатия : С потерями
Размер потока : 40,4 Мбайт (7%)
Выравнивание : Соединение по промежуткам
Продолжительность промежутка : 40 мс. (1,00 видеокадр)
Время предзагрузки промежутка : 504 мс.
Библиотека кодирования : LAME3.99r
Настройки программы : -m s -V 4 -q 0 -lowpass 17 -b 128



Скачать Диктаторы.Тайны.великих.Вождей.(1-9.серий.из.9).(Василий.Пичулин.Александр.Иванкин.Артем.Чащихин-Тоизде.Денис.Трофимов.Александр.Сидоров.Андрей.Нянькин).[2003-2004.Документальный.познавательный.история.фашизм.биография.политика.DVDRip].torrent без регистрации
Золото ЗОЛОТАЯ РАЗДАЧА! СКАЧАННОЕ НЕ ЗАСЧИТЫВАЕТСЯ! Золото
Дата: Зарегистрирован   [ Тип: внутренний ] Как тут cкачать?
MAGNET ссылка
MAGNET ссылка


Скачать .torrent

25 KB

Статус: проверено DHT
Скачан: торрент - 60 раз, раздача полностью - 7 раз
Размер: 4,76 GB
Оценка:  - (Голосов: 0)
Поблагодарили: 0
Поделиться ссылкой на эту раздачу с друзьями:
В контактеFacebookОдноклассникиTwitterLivejournalМой МирLiveinternet
 

 
Показать сообщения:    


Вы не можете начинать темы
Вы не можете отвечать на сообщения
Вы не можете редактировать свои сообщения
Вы не можете удалять свои сообщения
Вы не можете голосовать в опросах
Вы не можете прикреплять файлы к сообщениям
Вы можете скачивать файлы