Loading...
Error

Скачать Истерия / Delirium (Дэннис Илиадис) [2018, ужасы, триллер, WEB-DL] [1080p] [DUB] [Лицензия / iTunes] торрент без регистрации

Статистика раздачи
Размер:  3,56 GB   |    Скачан:  179 раз
Сидов:  1  [  0 KB/s  ]  
 
 
 
Автор Сообщение

leon030982

[] 

Истерия / Delirium

Информация о фильме

Год выхода: 2018
Произведено: США
Жанр: ужасы, триллер
Продолжительность: 01:36:56
Перевод: Дублированный [Лицензия / iTunes]

Режиссер постановщик: Дэннис Илиадис

В главных ролях: Тофер Грейс, Дженезис Родригез, Патришия Кларксон, Каллэн Мулвей, Робин Томас, Дэйзи МакКрэкин, Коуди Салливан, Браден Фицджералд, Марти Эли Шварц, Келли Барксдэйл

О фильме: Бывший пациент клиники для душевнобольных возвращается в роскошный особняк, доставшийся ему после смерти родителей. В этом доме прошло все его детство, и с ним связано много ярких воспоминаний. Но со временем в доме начинают происходить странные и пугающие вещи. Или это все — в его голове?



Релиз --

Качество: WEB-DL 1080p
Формат: MKV
Видео данные: MPEG-4 AVC, 4916 КБ/с, 1908x1028
Аудио данные: AC3, 6 ch, 384 Кбит/с
General
Unique ID : 97203162662794311729351367681565111288 (0x4920A5EE375DC995ED56EAC45F61B3F8)
Complete name : E:\isteriya_2018_WEB-DL1080_iTunes_RG_NEW_MOWER.mkv
Format : Matroska
Format version : Version 4 / Version 2
File size : 3.56 GiB
Duration : 1 h 36 min
Overall bit rate : 5 302 kb/s
Encoded date : UTC 2018-06-12 15:40:32
Writing application : mkvmerge v23.0.0 ('The Bride Said No') 32-bit
Writing library : libebml v1.3.6 + libmatroska v1.4.9

Video
ID : 2
Format : AVC
Format/Info : Advanced Video Codec
Format profile : High@L4
Format settings : CABAC / 4 Ref Frames
Format settings, CABAC : Yes
Format settings, RefFrames : 4 frames
Codec ID : V_MPEG4/ISO/AVC
Duration : 1 h 36 min
Bit rate : 4 812 kb/s
Width : 1 908 pixels
Height : 1 028 pixels
Display aspect ratio : 1.85:1
Frame rate mode : Constant
Frame rate : 23.976 (24000/1001) FPS
Color space : YUV
Chroma subsampling : 4:2:0
Bit depth : 8 bits
Scan type : Progressive
Bits/(Pixel*Frame) : 0.102
Stream size : 3.23 GiB (91%)
Language : English
Default : Yes
Forced : No
Color range : Limited
Color primaries : BT.709
Transfer characteristics : BT.709
Matrix coefficients : BT.709

Audio
ID : 1
Format : AC-3
Format/Info : Audio Coding 3
Format settings, Endianness : Big
Codec ID : A_AC3
Duration : 1 h 36 min
Bit rate mode : Constant
Bit rate : 384 kb/s
Channel(s) : 6 channels
Channel positions : Front: L C R, Side: L R, LFE
Sampling rate : 48.0 kHz
Frame rate : 31.250 FPS (1536 SPF)
Bit depth : 16 bits
Compression mode : Lossy
Delay relative to video : -42 ms
Stream size : 264 MiB (7%)
Language : Russian
Service kind : Complete Main
Default : Yes
Forced : No

Menu
00:00:00.000 : en:1
00:03:43.000 : en:2
00:13:45.000 : en:3
00:24:11.000 : en:4
00:34:01.000 : en:5
00:43:49.000 : en:6
00:55:05.000 : en:7
01:04:02.000 : en:8
01:13:01.000 : en:9
01:19:19.000 : en:10
01:30:11.000 : en:11



Скачать Истерия.Delirium.(Дэннис.Илиадис).[2018.ужасы.триллер.WEB-DL].[1080p].[DUB].[Лицензия.iTunes].torrent без регистрации
Золото ЗОЛОТАЯ РАЗДАЧА! СКАЧАННОЕ НЕ ЗАСЧИТЫВАЕТСЯ! Золото
Дата: Зарегистрирован   [ Тип: внутренний ] Как тут cкачать?
MAGNET ссылка
MAGNET ссылка


Скачать .torrent

19 KB

Статус: проверено DHT
Скачан: торрент - 179 раз, раздача полностью - 226 раз
Размер: 3,56 GB
Оценка:  5 (Голосов: 3)
Поблагодарили: 9
Поделиться ссылкой на эту раздачу с друзьями:
В контактеFacebookОдноклассникиTwitterLivejournalМой МирLiveinternet
 

 
Показать сообщения:    


Вы не можете начинать темы
Вы не можете отвечать на сообщения
Вы не можете редактировать свои сообщения
Вы не можете удалять свои сообщения
Вы не можете голосовать в опросах
Вы не можете прикреплять файлы к сообщениям
Вы можете скачивать файлы