Loading...
Error

Скачать Проповедник / Preacher (Сезон 03) (Эван Голдберг) [2018, фэнтези, драма, детектив, приключения, WEB-DLRip] [MVO] (AlexFilm) + Original торрент без регистрации

Статистика раздачи
Размер:  8,53 GB   |    Скачан:  133 раза

Полного источника не было: 21 минута

 
 
 
Автор Сообщение

leon030982

[] 

Проповедник / Preacher

Год выпуска: 2018
Страна: США
Жанр: фэнтези, драма, детектив, приключения
Продолжительность: ~00:45:00
Озвучание: Профессиональное (многоголосое закадровое) (AlexFilm)

Режиссеры: Эван Голдберг, Сет Роген, Майкл Словис

В ролях: Доминик Купер, Джозеф Гилган, Рут Негга, Люси Гриффитс, У. Эрл Браун, Том Брук, Анатол Юсеф, Йен Коллетти, Дерек Уилсон, Джеки Эрл Хейли

Описание: Священник Джесси Кастер по воле случая стал носителем внутри своего естества странного существа по имени Генезис. Это дитя совокупления ангела и демона представляет собой одновременно чистый идеал и квинтэссенцию света, но также сгусток абсолютного зла. Генезис — единственное существо во Вселенной, которое может встать вровень с Богом, если того пожелает, а его носитель автоматически становится самым могущественным существом в материальном мире. И это проповедник Кастер.

Релиз:

Перевод: Константин Кривоногов
Монтаж и сведение звука: Михаил Шорыгин
Роли озвучивали:
Наталья Ланц
Светлана Чистохина
Михаил Суслов
Владимир Курдов
Константин Погодаев
Рустам Шайхиев
Кирилл Патрино



Качество: WEB-DLRip
Формат: AVI
Видео: XviD, 720 x 400 (16:9), 23.976 fps, ~2000 kbps, 0.29 Bits/Pixel
Аудио Rus: 48 kHz, AC3, 6 ch, ~384.00 kbps avg
Аудио Eng: 48 kHz, AC3, 6 ch, ~384.00 kbps avg
Субтитры: нет
Общее
Полное имя : E:\_Сериалы\_Сериалы\Проповедник\Preacher.s03.WEB-DLRip.Rus.Eng.AlexFilm\Preacher.s03e01.WEB-DLRip.Rus.Eng.AlexFilm.avi
Формат : AVI
Формат/Информация : Audio Video Interleave
Размер файла : 836 Мбайт
Продолжительность : 41 м. 55 с.
Общий поток : 2788 Кбит/сек
Программа кодирования : VirtualDubMod 1.5.10.3 | www.virtualdub-fr.org || (build 2550/release)
Библиотека кодирования : VirtualDubMod build 2550/release

Видео
Идентификатор : 0
Формат : MPEG-4 Visual
Профиль формата : Advanced Simple@L5
Настройки формата : BVOP1
Параметр BVOP формата : 1
Параметр QPel формата : Нет
Параметр GMC формата : Без точки перехода
Параметр матрицы формата : Default (MPEG)
Идентификатор кодека : XVID
Идентификатор кодека/Подсказка : XviD
Продолжительность : 41 м. 55 с.
Битрейт : 2006 Кбит/сек
Ширина : 720 пикселей
Высота : 400 пикселей
Соотношение сторон : 16:9
Частота кадров : 23,976 (24000/1001) кадра/сек
Цветовое пространство : YUV
Субдискретизация насыщенности : 4:2:0
Битовая глубина : 8 бит
Тип развёртки : Прогрессивная
Метод сжатия : С потерями
Бит/(Пиксели*Кадры) : 0.291
Размер потока : 601 Мбайт (72%)
Библиотека кодирования : XviD 1.2.1 (UTC 2008-12-04)

Аудио #1
Идентификатор : 1
Формат : AC-3
Формат/Информация : Audio Coding 3
Идентификатор кодека : 2000
Продолжительность : 41 м. 55 с.
Вид битрейта : Постоянный
Битрейт : 384 Кбит/сек
Каналы : 6 каналов
Расположение каналов : Front: L C R, Side: L R, LFE
Частота : 48,0 КГц
Частота кадров : 31,250 кадров/сек (1536 SPF)
Битовая глубина : 16 бит
Метод сжатия : С потерями
Размер потока : 115 Мбайт (14%)
Выравнивание : Разделение по промежуткам
Продолжительность промежутка : 42 мс. (1,00 видеокадр)
Время предзагрузки промежутка : 500 мс.
ServiceKind/String : Complete Main

Аудио #2
Идентификатор : 2
Формат : AC-3
Формат/Информация : Audio Coding 3
Идентификатор кодека : 2000
Продолжительность : 41 м. 55 с.
Вид битрейта : Постоянный
Битрейт : 384 Кбит/сек
Каналы : 6 каналов
Расположение каналов : Front: L C R, Side: L R, LFE
Частота : 48,0 КГц
Частота кадров : 31,250 кадров/сек (1536 SPF)
Битовая глубина : 16 бит
Метод сжатия : С потерями
Размер потока : 115 Мбайт (14%)
Выравнивание : Разделение по промежуткам
Продолжительность промежутка : 42 мс. (1,00 видеокадр)
Время предзагрузки промежутка : 500 мс.
ServiceKind/String : Complete Main



Скачать Проповедник.Preacher.(Сезон.03).(Эван.Голдберг).[2018.фэнтези.драма.детектив.приключения.WEB-DLRip].[MVO].(AlexFilm).+.Original.torrent без регистрации
Золото ЗОЛОТАЯ РАЗДАЧА! СКАЧАННОЕ НЕ ЗАСЧИТЫВАЕТСЯ! Золото
Дата: Зарегистрирован   [ Тип: внутренний ] Как тут cкачать?
MAGNET ссылка
MAGNET ссылка


Скачать .torrent

44 KB

Статус: проверено DHT
Скачан: торрент - 133 раз, раздача полностью - 8 раз
Размер: 8,53 GB
Оценка:  - (Голосов: 0)
Поблагодарили: 0
Поделиться ссылкой на эту раздачу с друзьями:
В контактеFacebookОдноклассникиTwitterLivejournalМой МирLiveinternet
 

 
Показать сообщения:    


Вы не можете начинать темы
Вы не можете отвечать на сообщения
Вы не можете редактировать свои сообщения
Вы не можете удалять свои сообщения
Вы не можете голосовать в опросах
Вы не можете прикреплять файлы к сообщениям
Вы можете скачивать файлы