Loading...
Error

Скачать Кондор / Condor / Сезон: 1 / Серии: 1-9 из 10 (Эндрю МакКарти, Лоуренс Триллинг) [2018, Триллер, WEB-DL 720p] [DVO] (Кубик в Кубе) + [Original] торрент без регистрации

Статистика раздачи
Размер:  15,47 GB   |    Скачан:  227 раз
Сидов:  1  [  0 KB/s  ]  
 
 
 
Автор Сообщение

leon030982

[] 

Кондор / Condor



Год выпуска: 2018
Страна: США
Жанр: Триллер
Продолжительность: ~ 00:55:00
Перевод: Профессиональный (двухголосый закадровый) | Кубик в Кубе
Субтитры: английские

Режиссёр: Эндрю МакКарти, Лоуренс Триллинг

В ролях:Макс Айронс, Лим Лубани, Кэтерин Каннингэм, Кристина Моусес, Мона Траоре, Стив Белфорд, Кейт Вернон, Далмар Абузейд, Кэлвин Десотелс

Описание: По мотивам романа «Шесть дней Кондора» и его экранизации «Три дня Кондора».

Молодой работник ЦРУ возвращается с обеда и обнаруживает, что все его коллеги были зверски убиты. Расследование преступления раскрывает шокирующие тайны и крупный заговор.



Качество: WEB-DL 720p
Формат: MKV
Видео: 1280x720 at 23.976 fps, MPEG-4 AVC, ~4000 kbps avg
Аудио 1: AC3, 48,0 КГц, 6 ch, 448 kbps - [RUS]
Аудио 2: AC3, 48,0 КГц, 6 ch, 448 kbps - [ENG]
General
Unique ID : 183672764014527112509375747349249468832 (0x8A2E166E28BC3C458CF0CC48842329A0)
Complete name : F:\Condor.S01.720p.WEB.CasStudio.TV\Condor.S01E01.What.Loneliness.720p.WEB-DL.KvK.CasStudio.TV.mkv
Format : Matroska
Format version : Version 4 / Version 2
File size : 1.89 GiB
Duration : 53 min 33 s
Overall bit rate : 5 057 kb/s
Movie name : Condor 01x01 (What Loneliness) - release by messafan for CasStudio.TV
Encoded date : UTC 2018-06-20 17:26:40
Writing application : mkvmerge v6.7.0 ('Back to the Ground') 64bit built on Jan 8 2014 15:10:52
Writing library : libebml v1.3.0 + libmatroska v1.4.1

Video
ID : 1
Format : AVC
Format/Info : Advanced Video Codec
Format profile : Main@L3.1
Format settings : CABAC / 4 Ref Frames
Format settings, CABAC : Yes
Format settings, RefFrames : 4 frames
Codec ID : V_MPEG4/ISO/AVC
Duration : 53 min 33 s
Bit rate : 4 061 kb/s
Width : 1 280 pixels
Height : 720 pixels
Display aspect ratio : 16:9
Frame rate mode : Constant
Frame rate : 23.976 (24000/1001) FPS
Color space : YUV
Chroma subsampling : 4:2:0
Bit depth : 8 bits
Scan type : Progressive
Bits/(Pixel*Frame) : 0.184
Stream size : 1.52 GiB (80%)
Writing library : Zencoder Video Encoding System
Default : Yes
Forced : No
Color range : Limited
Color primaries : BT.709
Transfer characteristics : BT.709
Matrix coefficients : BT.709

Audio #1
ID : 2
Format : AC-3
Format/Info : Audio Coding 3
Format settings, Endianness : Big
Codec ID : A_AC3
Duration : 53 min 33 s
Bit rate mode : Constant
Bit rate : 448 kb/s
Channel(s) : 6 channels
Channel positions : Front: L C R, Side: L R, LFE
Sampling rate : 48.0 kHz
Frame rate : 31.250 FPS (1536 SPF)
Bit depth : 16 bits
Compression mode : Lossy
Stream size : 172 MiB (9%)
Title : KvK DD5.1 @ 448kbps
Language : Russian
Service kind : Complete Main
Default : Yes
Forced : No

Audio #2
ID : 3
Format : AC-3
Format/Info : Audio Coding 3
Format settings, Endianness : Big
Codec ID : A_AC3
Duration : 53 min 33 s
Bit rate mode : Constant
Bit rate : 448 kb/s
Channel(s) : 6 channels
Channel positions : Front: L C R, Side: L R, LFE
Sampling rate : 48.0 kHz
Frame rate : 31.250 FPS (1536 SPF)
Bit depth : 16 bits
Compression mode : Lossy
Stream size : 172 MiB (9%)
Title : English DD5.1 @ 448kbps
Language : English
Service kind : Complete Main
Default : No
Forced : No

Text
ID : 4
Format : UTF-8
Codec ID : S_TEXT/UTF8
Codec ID/Info : UTF-8 Plain Text
Title : Eng sub
Language : English
Default : No
Forced : No
Когда раздача ведётся путём добавления новых серий, при каждом добавлении создётся новый торрент. Чтобы начать докачку новой серии, пользователям необходимо сделать следующее:
(1) остановить скачивание,
(2) удалить старый торрент у себя из клиента (старые серии удалять не надо),
(3) скачать новый торрент и запустить его у себя в клиенте вместо старого, при этом указать клиенту путь в старую папку, куда и должно происходить скачивание новых серий.
Ваш клиент при этом должен произвести хеширование (проверку) старой папки (если не производит сам - помогите ему сделать это), и будет докачивать только те серии, которых у вас ещё нет. Старые серии при этом не удаляются, а продолжают раздаваться!
Eсли вы уже удалили старые серии, то предотвратить повторную закачку старых серий можно, отжав галочку в соответсвующих местах при запуске нового торрента. По возможности, желательно не удалять старые серии как можно дольше, чтобы релизёр не столько продолжал раздавать старые серии, а смог сконцентрироваться на новых.



Скачать Кондор.Condor.Сезон.1.Серии.1-9.из.10.(Эндрю.МакКарти.Лоуренс.Триллинг).[2018.Триллер.WEB-DL.720p].[DVO].(Кубик.в.Кубе).+.[Original].torrent без регистрации
Золото ЗОЛОТАЯ РАЗДАЧА! СКАЧАННОЕ НЕ ЗАСЧИТЫВАЕТСЯ! Золото
Дата: Зарегистрирован   [ Тип: внутренний ] Как тут cкачать?
MAGNET ссылка
MAGNET ссылка


Скачать .torrent

79 KB

Статус: проверено DHT
Скачан: торрент - 227 раз, раздача полностью - 2 раз
Размер: 15,47 GB
Оценка:  - (Голосов: 0)
Поблагодарили: 0
Поделиться ссылкой на эту раздачу с друзьями:
В контактеFacebookОдноклассникиTwitterLivejournalМой МирLiveinternet
 

 
Показать сообщения:    


Вы не можете начинать темы
Вы не можете отвечать на сообщения
Вы не можете редактировать свои сообщения
Вы не можете удалять свои сообщения
Вы не можете голосовать в опросах
Вы не можете прикреплять файлы к сообщениям
Вы можете скачивать файлы