Loading...
Error

Скачать Мистер Мерседес / Mr. Mercedes (Сезон 01) (Джек Бендер) [2017, Триллер, детектив, WEB-DL 1080p, HDTV 1080p] [MVO] (FilmsClub) + [Orig] торрент без регистрации

Статистика раздачи
Размер:  34,42 GB   |    Скачан:  48 раз
Сидов:  1  [  0 KB/s  ]  
 
 
 
Автор Сообщение

leon030982

[] 

Мистер Мерседес / Mr. Mercedes

Год выпуска: 2017
Страна: США
Жанр: Триллер, детектив
Продолжительность: 1x~ 00:50:00
Перевод: Профессиональный (многоголосый закадровый) *FilmsClub*
Субтитры: Нет

Режиссёр: Джек Бендер

В ролях: Брендан Глисон, Джаррель Джером, Гарри Тредэвэй, Келли Линч, Эд Андерсон, Грант Лэйн и др.

Описание: Билл Ходжес в молодые годы был по-настоящему крытым полицейским, который всегда являлся примером для подражания. Однако до сих пор отставной коп не может забыть о той странной серии убийств, которая осталась единственной нераскрытой в карьере главного героя. Возвращение на прежнюю работу утолит его жажду. Однако жажду свою утолить мечтает и Брейди Хартфилд, который до сих пор вспоминает с предвкушением то, как он на машине врезался в толпу людей. Преступник планирует очередное покушение. Самое сложное в работе следователей - понять, кто очередная жертва, ведь погибнуть может кто угодно!



Качество: WEB-DL 1080p, HDTV 1080p
Формат: MKV
Видео кодек: AVC
Аудио кодек: AC3, E-AC3
Видео: H264, 1920x1080 (16:9), 29.976 fps, ~6041 kbps
Аудио 1: AC3, 5.1 / 48 Khz / 448 kbps / 16-bit - MVO
Аудио 2: EAC3, 5.1 / 48 Khz / 640 kbps - 1 серия; AC3, 5.1 / 48 Khz / 384 kbps - 2-10 серии - ENG
General
Unique ID : 61591062123754491002035071042051134201 (0x2E5601D053D6D24CC60B339FC10452F9)
Complete name : /etc/seedbox/home/stalker2011/data/Mr.Mercedes.S01.1080p.films.club/Mr.Mercedes.S01E01.1080p.WEB-DL.H.264-films.club.mkv
Format : Matroska
Format version : Version 4 / Version 2
File size : 2.78 GiB
Duration : 55 min 47 s
Overall bit rate : 7 132 kb/s
Encoded date : UTC 2018-07-07 11:26:03
Writing application : mkvmerge v24.0.0 ('Beyond The Pale') 64-bit
Writing library : libebml v1.3.6 + libmatroska v1.4.9

Video
ID : 1
Format : AVC
Format/Info : Advanced Video Codec
Format profile : High@L4
Format settings : CABAC / 4 Ref Frames
Format settings, CABAC : Yes
Format settings, ReFrames : 4 frames
Codec ID : V_MPEG4/ISO/AVC
Duration : 55 min 47 s
Bit rate : 6 041 kb/s
Width : 1 920 pixels
Height : 1 080 pixels
Display aspect ratio : 16:9
Frame rate mode : Constant
Frame rate : 23.976 (24000/1001) FPS
Color space : YUV
Chroma subsampling : 4:2:0
Bit depth : 8 bits
Scan type : Progressive
Bits/(Pixel*Frame) : 0.122
Stream size : 2.35 GiB (85%)
Default : Yes
Forced : No
Color range : Limited
Color primaries : BT.709
Transfer characteristics : BT.709
Matrix coefficients : BT.709

Audio #1
ID : 2
Format : AC-3
Format/Info : Audio Coding 3
Codec ID : A_AC3
Duration : 55 min 47 s
Bit rate mode : Constant
Bit rate : 448 kb/s
Channel(s) : 6 channels
Channel positions : Front: L C R, Side: L R, LFE
Sampling rate : 48.0 kHz
Frame rate : 31.250 FPS (1536 SPF)
Bit depth : 16 bits
Compression mode : Lossy
Stream size : 179 MiB (6%)
Title : films.club
Language : Russian
Service kind : Complete Main
Default : Yes
Forced : Yes

Audio #2
ID : 3
Format : E-AC-3
Format/Info : Enhanced Audio Coding 3
Codec ID : A_EAC3
Duration : 55 min 47 s
Bit rate mode : Constant
Bit rate : 640 kb/s
Channel(s) : 6 channels
Channel positions : Front: L C R, Side: L R, LFE
Sampling rate : 48.0 kHz
Frame rate : 187.500 FPS (256 SPF)
Compression mode : Lossy
Stream size : 255 MiB (9%)
Language : English
Service kind : Complete Main
Default : No
Forced : No



Скачать Мистер.Мерседес.Mr.Mercedes.(Сезон.01).(Джек.Бендер).[2017.Триллер.детектив.WEB-DL.1080p.HDTV.1080p].[MVO].(FilmsClub).+.[Orig].torrent без регистрации
Золото ЗОЛОТАЯ РАЗДАЧА! СКАЧАННОЕ НЕ ЗАСЧИТЫВАЕТСЯ! Золото
Дата: Зарегистрирован   [ Тип: внутренний ] Как тут cкачать?
MAGNET ссылка
MAGNET ссылка


Скачать .torrent

174 KB

Статус: проверено DHT
Скачан: торрент - 48 раз, раздача полностью - 19 раз
Размер: 34,42 GB
Оценка:  - (Голосов: 0)
Поблагодарили: 1
Поделиться ссылкой на эту раздачу с друзьями:
В контактеFacebookОдноклассникиTwitterLivejournalМой МирLiveinternet
 

 
Показать сообщения:    


Вы не можете начинать темы
Вы не можете отвечать на сообщения
Вы не можете редактировать свои сообщения
Вы не можете удалять свои сообщения
Вы не можете голосовать в опросах
Вы не можете прикреплять файлы к сообщениям
Вы можете скачивать файлы