Loading...
Error

Скачать Грешница / The Sinner/ Сезон: 2 / Серии: 1-6 из 8 (Антонио Кампос, Брэд Андерсон) [2018, триллер, драма, WEB-DLRip] [MVO] (LostFilm) торрент без регистрации

Статистика раздачи
Размер:  3,1 GB   |    Скачан:  148 раз
Сидов:  1  [  0 KB/s  ]  
 
 
 
Автор Сообщение

leon030982

[] 

Грешница | The Sinner

• Год выпуска: 2018
• Страна: США
• Жанр: Триллер
• Продолжительность: ~ 00:45:00
• Перевод: Профессиональный (многоголосый закадровый) | LostFilm

• Режиссёр: Антонио Кампос, Брэд Андерсон

• В ролях: Джессика Бил, Джейкоб Бергер, Спенсер Гранезе, Эдриэнн Ловетт, Кристофер Эбботт, Патти Д Арбанвиль, Элейн дель Валье, Роберт Фунаро и др.

• Описание: История о молодой матери, совершающей ужасные акты насилия, понятия не имея, почему, и детективе, который становится одержим делом, стремится углубиться в прошлое женщины и выяснить причины такого поведения.



• Качество: WEB-DLRip
• Формат: AVI
• Видео: XviD, ~ 1400 kbps, 720x400 (16:9), 23.976 fps
• Аудио 1: MP3, 48,0 КГц, 2 ch, 128 kbps - Rus
• Аудио 2: MP3, 48,0 КГц, 2 ch, 128 kbps - Eng
• Субтитры: отсутствуют
General
Complete name : E:\The.Sinner.S02E01.WEB-DLRip.Rus.Eng.LostFilm.avi
Format : AVI
Format/Info : Audio Video Interleave
File size : 551 MiB
Duration : 46 min 1 s
Overall bit rate : 1 673 kb/s
Writing application : VirtualDubMod 1.5.10.3 | www.virtualdub-fr.org || (build 2550/release)
Writing library : VirtualDubMod build 2550/release

Video
ID : 0
Format : MPEG-4 Visual
Format profile : Advanced Simple@L5
Format settings : BVOP1 / Custom Matrix
Format settings, BVOP : 1
Format settings, QPel : No
Format settings, GMC : No warppoints
Format settings, Matrix : Custom
Codec ID : XVID
Codec ID/Hint : XviD
Duration : 46 min 1 s
Bit rate : 1 340 kb/s
Width : 720 pixels
Height : 400 pixels
Display aspect ratio : 16:9
Frame rate : 23.976 (24000/1001) FPS
Original frame rate : 23.976 (23976/1000) FPS
Color space : YUV
Chroma subsampling : 4:2:0
Bit depth : 8 bits
Scan type : Progressive
Compression mode : Lossy
Bits/(Pixel*Frame) : 0.194
Stream size : 441 MiB (80%)
Writing library : XviD 73

Audio #1
ID : 1
Format : MPEG Audio
Format version : Version 1
Format profile : Layer 3
Format settings : Joint stereo / MS Stereo
Mode : Joint stereo
Mode extension : MS Stereo
Codec ID : 55
Codec ID/Hint : MP3
Duration : 46 min 1 s
Bit rate mode : Constant
Bit rate : 128 kb/s
Channel(s) : 2 channels
Sampling rate : 48.0 kHz
Compression mode : Lossy
Stream size : 42.1 MiB (8%)
Alignment : Aligned on interleaves

Audio #2
ID : 2
Format : MPEG Audio
Format version : Version 1
Format profile : Layer 3
Format settings : Joint stereo / MS Stereo
Mode : Joint stereo
Mode extension : MS Stereo
Codec ID : 55
Codec ID/Hint : MP3
Duration : 46 min 1 s
Bit rate mode : Constant
Bit rate : 128 kb/s
Channel(s) : 2 channels
Sampling rate : 48.0 kHz
Compression mode : Lossy
Stream size : 42.1 MiB (8%)
Alignment : Aligned on interleaves
Когда раздача ведётся путём добавления новых серий, при каждом добавлении создётся новый торрент. Чтобы начать докачку новой серии, пользователям необходимо сделать следующее:
(1) остановить скачивание,
(2) удалить старый торрент у себя из клиента (старые серии удалять не надо),
(3) скачать новый торрент и запустить его у себя в клиенте вместо старого, при этом указать клиенту путь в старую папку, куда и должно происходить скачивание новых серий.
Ваш клиент при этом должен произвести хеширование (проверку) старой папки (если не производит сам - помогите ему сделать это), и будет докачивать только те серии, которых у вас ещё нет. Старые серии при этом не удаляются, а продолжают раздаваться!
Eсли вы уже удалили старые серии, то предотвратить повторную закачку старых серий можно, отжав галочку в соответсвующих местах при запуске нового торрента. По возможности, желательно не удалять старые серии как можно дольше, чтобы релизёр не столько продолжал раздавать старые серии, а смог сконцентрироваться на новых.



Скачать Грешница.The.Sinner.Сезон.2.Серии.1-6.из.8.(Антонио.Кампос.Брэд.Андерсон).[2018.триллер.драма.WEB-DLRip].[MVO].(LostFilm).torrent без регистрации
Золото ЗОЛОТАЯ РАЗДАЧА! СКАЧАННОЕ НЕ ЗАСЧИТЫВАЕТСЯ! Золото
Дата: Зарегистрирован   [ Тип: внутренний ] Как тут cкачать?
MAGNET ссылка
MAGNET ссылка


Скачать .torrent

17 KB

Статус: проверено DHT
Скачан: торрент - 148 раз, раздача полностью - 0 раз
Размер: 3,1 GB
Оценка:  - (Голосов: 0)
Поблагодарили: 1
Поделиться ссылкой на эту раздачу с друзьями:
В контактеFacebookОдноклассникиTwitterLivejournalМой МирLiveinternet
 

 
Показать сообщения:    


Вы не можете начинать темы
Вы не можете отвечать на сообщения
Вы не можете редактировать свои сообщения
Вы не можете удалять свои сообщения
Вы не можете голосовать в опросах
Вы не можете прикреплять файлы к сообщениям
Вы можете скачивать файлы