Loading...
Error

Скачать Скрытое / Craith / Hidden (Сезон 01) (Эрик Стайлз, Крис Форстер, Гарет Брин) [2018, драма, криминал, HDTVRip] [MVO] (NewStudio) + Original торрент без регистрации

Статистика раздачи
Размер:  6,82 GB   |    Скачан:  124 раза
Сидов:  2  [  10 KB/s  ]  
 
 
 
Автор Сообщение

leon030982

[] 

Скрытое / Craith / Hidden


Страна: Великобритания
Жанр: драма, криминал
Год выпуска: 2018
Продолжительность: ~ 00:58:00
Перевод: Профессиональный (многоголосый закадровый) | NewStudio

Субтитры: нет

Режиссер: Эрик Стайлз, Крис Форстер, Гарет Брин

В ролях: Ниа Робертс, Джиллиан Элиза, Родри Мейлир, Йен Сейнор, Гвинет Киворт, Виктория Паг, Сара Темпест, Иоан Хефин, Шан Риз-Уильямс, Родри Сион, Лори Иззард и др.

Описание: Когда в озере находят тело молодой женщины, детектив Кади Джон принимается за расследование. Героиня должна раскрыть страшную тайну, скрывающуюся за смертью погибшей, и постараться не допустить ещё большей трагедии.



Качество видео: HDTVRip
Формат видео: AVI
Видео: 720x400 (1.80:1), 25 fps, XviD build 50 ~1765 kbps avg, 0.25 bit/pixel
Аудио #1: 48 kHz, MPEG Layer 3, 2 ch, ~192.00 kbps avg (Rus)
Аудио #2: 48 kHz, MPEG Layer 3, 2 ch, ~192.00 kbps avg (Eng)
Общее
Полное имя : D:\Видео\Сериалы\Hidden\Hidden.s01e01.avi
Формат : AVI
Формат/Информация : Audio Video Interleave
Размер файла : 887 Мбайт
Продолжительность : 57 м. 16 с.
Общий поток : 2165 Кбит/сек
Программа кодирования : VirtualDubMod 1.5.10.2 (build 2540/release)
Библиотека кодирования : VirtualDubMod build 2540/release

Видео
Идентификатор : 0
Формат : MPEG-4 Visual
Профиль формата : Advanced Simple@L5
Настройки формата : BVOP1
Параметр BVOP формата : 1
Параметр QPel формата : Нет
Параметр GMC формата : Без точки перехода
Параметр матрицы формата : Default (H.263)
Идентификатор кодека : XVID
Идентификатор кодека/Подсказка : XviD
Продолжительность : 57 м. 16 с.
Битрейт : 1766 Кбит/сек
Ширина : 720 пикселей
Высота : 400 пикселей
Соотношение сторон : 16:9
Частота кадров : 25,000 кадров/сек
Цветовое пространство : YUV
Субдискретизация насыщенности : 4:2:0
Битовая глубина : 8 бит
Тип развёртки : Прогрессивная
Метод сжатия : С потерями
Бит/(Пиксели*Кадры) : 0.245
Размер потока : 724 Мбайт (82%)
Библиотека кодирования : XviD 1.2.1 (UTC 2008-12-04)

Аудио #1
Идентификатор : 1
Формат : MPEG Audio
Версия формата : Version 1
Профиль формата : Layer 3
Настройки формата : Joint stereo / MS Stereo
Идентификатор кодека : 55
Идентификатор кодека/Подсказка : MP3
Продолжительность : 57 м. 16 с.
Вид битрейта : Постоянный
Битрейт : 192 Кбит/сек
Каналы : 2 канала
Частота : 48,0 КГц
Метод сжатия : С потерями
Размер потока : 78,7 Мбайт (9%)
Выравнивание : Соединение по промежуткам
Продолжительность промежутка : 40 мс. (1,00 видеокадр)
Время предзагрузки промежутка : 504 мс.

Аудио #2
Идентификатор : 2
Формат : MPEG Audio
Версия формата : Version 1
Профиль формата : Layer 3
Настройки формата : Joint stereo / MS Stereo
Идентификатор кодека : 55
Идентификатор кодека/Подсказка : MP3
Продолжительность : 57 м. 16 с.
Вид битрейта : Постоянный
Битрейт : 192 Кбит/сек
Каналы : 2 канала
Частота : 48,0 КГц
Частота кадров : 41,667 кадра/сек (1152 SPF)
Метод сжатия : С потерями
Размер потока : 78,7 Мбайт (9%)
Выравнивание : Соединение по промежуткам
Продолжительность промежутка : 40 мс. (1,00 видеокадр)
Время предзагрузки промежутка : 504 мс.
Внимание! Раздача ведётся путём добавления новых серий; при каждом добавлении создаётся новый торрент. Чтобы начать докачку новой серии, пользователям необходимо сделать следующее:
(1) остановить скачивание,
(2) удалить старый торрент у себя из клиента (старые серии удалять не надо),
(3) скачать новый торрент и запустить его у себя в клиенте вместо старого, при этом указать клиенту путь в старую папку куда и должно происходить скачивание новых серий.

Ваш клиент при этом должен произвести хеширование (проверку) старой папки (если не производит сам - помогите ему сделать это), и будет докачивать только те серии которых у вас ещё нет. Старые серии при этом не удаляются, а продолжают раздаваться!

Eсли вы уже удалили старые серии, то предотвратить повторную закачку старых серий можно, отжав галочку в соответствующих местах при запуске нового торрента. По возможности, желательно не удалять старые серии как можно дольше чтобы релизёр не столько продолжал раздавать старые серии, а смог сконцентрироваться на новых.



Скачать Скрытое.Craith.Hidden.(Сезон.01).(Эрик.Стайлз.Крис.Форстер.Гарет.Брин).[2018.драма.криминал.HDTVRip].[MVO].(NewStudio).+.Original.torrent без регистрации
Золото ЗОЛОТАЯ РАЗДАЧА! СКАЧАННОЕ НЕ ЗАСЧИТЫВАЕТСЯ! Золото
Дата: Зарегистрирован   [ Тип: внутренний ] Как тут cкачать?
MAGNET ссылка
MAGNET ссылка


Скачать .torrent

35 KB

Статус: проверено DHT
Скачан: торрент - 124 раз, раздача полностью - 10 раз
Размер: 6,82 GB
Оценка:  - (Голосов: 0)
Поблагодарили: 1
Поделиться ссылкой на эту раздачу с друзьями:
В контактеFacebookОдноклассникиTwitterLivejournalМой МирLiveinternet
 

 
Показать сообщения:    


Вы не можете начинать темы
Вы не можете отвечать на сообщения
Вы не можете редактировать свои сообщения
Вы не можете удалять свои сообщения
Вы не можете голосовать в опросах
Вы не можете прикреплять файлы к сообщениям
Вы можете скачивать файлы