Loading...
Error

2 / Super Troopers 2 ( / Jay Chandrasekhar) [2018, , , , , BDRip-AVC] [MVO] (HDRezka Studio)

1,36 GB   |    :  133
2  [  0 KB/s  ]  
 
 
 

leon030982

[] 

2 / Super Troopers 2
The time is meow
: 2018
:
: , ,
: 01:39:30
: ( ) HDRezka Studio
:

: / Jay Chandrasekhar

: , ., , , , , ., , ,

: . , .



: BDRip-AVC / Super Troopers 2 2018 REMUX 1080p Blu-ray AVC DTS-HD MA 5 1-LEGi0N
: MKV
: MPEG-4 AVC, 902x488 (1.85:1), 23.976 fps, ~1729 kbps avg, 0.164 bit/pixel
: 48 kHz, AC3 Dolby Digital, 2/0 (L,R) ch, ~192 kbps avg

:

Complete name : D:\\ 2 (2018) BDRip-AVC_ivanes20031987.mkv
Format : Matroska
Format version : Version 2
File size : 1.36 GiB
Duration : 1 h 39 min
Overall bit rate : 1 960 kb/s
Movie name : 2 (2018) BDRip-AVC_ivanes20031987
Encoded date : UTC 2018-07-23 12:20:39
Writing application : mkvmerge v4.4.0 ('Die Wiederkehr') Jan 3 2011 21:40:45
Writing library : libebml v1.0.0 + libmatroska v1.0.0
Cover : Yes
Attachments : cover.jpg

Video
ID : 1
Format : AVC
Format/Info : Advanced Video Codec
Format profile : High@L4.1
Format settings, CABAC : Yes
Format settings, RefFrames : 14 frames
Codec ID : V_MPEG4/ISO/AVC
Duration : 1 h 39 min
Bit rate : 1 729 kb/s
Width : 902 pixels
Height : 488 pixels
Display aspect ratio : 1.85:1
Frame rate mode : Constant
Frame rate : 23.976 (24000/1001) FPS
Color space : YUV
Chroma subsampling : 4:2:0
Bit depth : 8 bits
Scan type : Progressive
Bits/(Pixel*Frame) : 0.164
Stream size : 1.20 GiB (88%)
Title : Rip by ivanes20031987
Writing library : x264 core 155 r2901 7d0ff22
Encoding settings : cabac=1 / ref=14 / deblock=1:-3:-3 / analyse=0x3:0x113 / me=umh / subme=10 / psy=1 / psy_rd=1.00:0.00 / mixed_ref=1 / me_range=32 / chroma_me=1 / trellis=2 / 8x8dct=1 / cqm=0 / deadzone=21,11 / fast_pskip=0 / chroma_qp_offset=-2 / threads=12 / lookahead_threads=3 / sliced_threads=0 / nr=0 / decimate=0 / interlaced=0 / bluray_compat=0 / constrained_intra=0 / bframes=14 / b_pyramid=2 / b_adapt=2 / b_bias=0 / direct=1 / weightb=1 / open_gop=0 / weightp=2 / keyint=240 / keyint_min=23 / scenecut=40 / intra_refresh=0 / rc_lookahead=60 / rc=crf / mbtree=0 / crf=18.7 / qcomp=0.60 / qpmin=0 / qpmax=69 / qpstep=4 / vbv_maxrate=50000 / vbv_bufsize=62500 / crf_max=0.0 / nal_hrd=none / filler=0 / ip_ratio=1.40 / pb_ratio=1.30 / aq=1:1.00
Default : Yes
Forced : No

Audio
ID : 2
Format : AC-3
Format/Info : Audio Coding 3
Format settings, Endianness : Big
Codec ID : A_AC3
Duration : 1 h 39 min
Bit rate mode : Constant
Bit rate : 192 kb/s
Channel(s) : 2 channels
Channel positions : Front: L R
Sampling rate : 48.0 kHz
Frame rate : 31.250 FPS (1536 SPF)
Bit depth : 16 bits
Compression mode : Lossy
Stream size : 137 MiB (10%)
Title : HDRezka Studio
Language : Russian
Service kind : Complete Main
Default : Yes
Forced : No

:

x264 [info]: frame I:1871 Avg QP:17.47 size: 62996
x264 [info]: frame P:31208 Avg QP:19.59 size: 19713
x264 [info]: frame B:110081 Avg QP:21.67 size: 5316
x264 [info]: consecutive B-frames: 2.6% 2.8% 8.7% 23.7% 15.7% 34.7% 3.2% 4.8% 1.1% 0.6% 0.3% 0.2% 0.1% 0.8% 0.7%
x264 [info]: mb I I16..4: 4.7% 77.1% 18.2%
x264 [info]: mb P I16..4: 0.7% 9.9% 1.5% P16..4: 36.5% 27.5% 14.6% 0.0% 0.0% skip: 9.3%
x264 [info]: mb B I16..4: 0.1% 0.7% 0.1% B16..8: 36.5% 11.4% 3.1% direct: 4.2% skip:43.9% L0:40.3% L1:45.4% BI:14.3%
x264 [info]: 8x8 transform intra:79.7% inter:59.6%
x264 [info]: coded y,uvDC,uvAC intra: 85.9% 82.2% 61.1% inter: 19.5% 15.0% 6.3%
x264 [info]: i16 v,h,dc,p: 46% 18% 7% 28%
x264 [info]: i8 v,h,dc,ddl,ddr,vr,hd,vl,hu: 13% 12% 9% 8% 12% 12% 12% 11% 12%
x264 [info]: i4 v,h,dc,ddl,ddr,vr,hd,vl,hu: 12% 11% 4% 9% 14% 14% 13% 11% 12%
x264 [info]: i8c dc,h,v,p: 41% 25% 19% 15%
x264 [info]: Weighted P-Frames: Y:3.0% UV:1.4%
x264 [info]: ref P L0: 53.5% 12.4% 15.0% 4.8% 3.9% 2.6% 2.3% 1.2% 1.1% 0.8% 0.7% 0.6% 0.6% 0.5% 0.0% 0.0%
x264 [info]: ref B L0: 79.5% 9.5% 4.0% 2.0% 1.3% 1.1% 0.9% 0.6% 0.4% 0.3% 0.2% 0.2% 0.1%
x264 [info]: ref B L1: 95.5% 4.5%
x264 [info]: kb/s:1766.16



.2.Super.Troopers.2.(..Jay.Chandrasekhar).[2018.....BDRip-AVC].[MVO].(HDRezka.Studio).torrent
  ! ! 
:   [ : ] c?
MAGNET
MAGNET


.torrent

14 KB

: DHT
: - 133 , - 120
: 1,36 GB
- (: 0)
: 2
:
 FacebookTwitterLivejournal Liveinternet
 

 
: