Loading...
Error

Скачать Суперполицейские 2 / Super Troopers 2 (Джей Чандрашекхар / Jay Chandrasekhar) [2018, комедия, криминал, детектив, BDRip-AVC] [Ukr DUB] [iTunes] торрент без регистрации

Статистика раздачи
Размер:  2,19 GB   |    Скачан:  106 раз
Сидов:  111  [  0 KB/s  ]   Личеров:  1  [  0 KB/s  ]  
 
 
 
Автор Сообщение

leon030982

[] 

Суперполицейские 2 / Super Troopers 2
The time is meow»

Год выпуска: 2018
Страна: США
Жанр: комедия, криминал, детектив
Продолжительность: 01:39:30
Перевод: Украинский (дублированный)
Субтитры: Украинские, английские

Режиссер: Джей Чандрашекхар / Jay Chandrasekhar

В ролях: Шонн Уильям Скотт, Клифтон Коллинз мл., Стив Лемми, Эрик Столханске, Джей Чандрашекхар, Пол Сотер, Дэймон Уайанс мл., Кевин Хеффернан, Брайан Кокс, Мариса Кохлан

Описание: Фильм расскажет о безалаберных дорожных патрульных из маленького городка на границе США и Канады. Чтобы навести порядок на пограничной дороге и разрешить международный конфликт, пятёрка суперполицейских вынуждена сотрудничать со своими невыносимыми канадскими коллегами.



Качество видео: BDRip-AVC
Формат видео: MKV
Видео: MPEG-4 AVC, 1024х554 , 23.976 fps, ~2508 kbps avg
Аудио 1: 48 kHz, AC3 Dolby Digital, 2 ch, ~192 kbps avg - Ukr DUB
Аудио 2: 48 kHz, AC3 Dolby Digital, 6 ch, ~448 kbps avg - Eng
General
Unique ID : 206361498091286532601207762285568480706 (0x9B3FC762FE2ED86A9DACE274214C55C2)
Complete name : E:\INTERNET\Super Troopers 2 (2018) BDRip-AVC [UKR_ENG] [Hurtom].mkv
Format : Matroska
Format version : Version 4 / Version 2
File size : 2.19 GiB
Duration : 1 h 39 min
Overall bit rate : 3 151 kb/s
Encoded date : UTC 2018-08-09 17:16:15
Writing application : mkvmerge v14.0.0 ('Flow') 64bit
Writing library : libebml v1.3.4 + libmatroska v1.4.5
Cover : Yes
Attachments : cover

Video
ID : 1
Format : AVC
Format/Info : Advanced Video Codec
Format profile : High@L4.1
Format settings : CABAC / 10 Ref Frames
Format settings, CABAC : Yes
Format settings, RefFrames : 10 frames
Codec ID : V_MPEG4/ISO/AVC
Duration : 1 h 39 min
Bit rate : 2 508 kb/s
Width : 1 024 pixels
Height : 554 pixels
Display aspect ratio : 1.85:1
Frame rate mode : Constant
Frame rate : 23.976 (24000/1001) FPS
Color space : YUV
Chroma subsampling : 4:2:0
Bit depth : 8 bits
Scan type : Progressive
Bits/(Pixel*Frame) : 0.184
Stream size : 1.70 GiB (78%)
Writing library : x264 core 146 r2538 121396c
Encoding settings : cabac=1 / ref=10 / deblock=1:-3:-3 / analyse=0x3:0x113 / me=umh / subme=11 / psy=1 / psy_rd=0.99:0.05 / mixed_ref=1 / me_range=48 / chroma_me=1 / trellis=2 / 8x8dct=1 / cqm=0 / deadzone=21,11 / fast_pskip=1 / chroma_qp_offset=-3 / threads=6 / lookahead_threads=1 / sliced_threads=0 / nr=0 / decimate=1 / interlaced=0 / bluray_compat=0 / constrained_intra=0 / bframes=10 / b_pyramid=2 / b_adapt=2 / b_bias=0 / direct=3 / weightb=1 / open_gop=0 / weightp=2 / keyint=240 / keyint_min=23 / scenecut=40 / intra_refresh=0 / rc_lookahead=40 / rc=2pass / mbtree=1 / bitrate=2508 / ratetol=1.0 / qcomp=0.60 / qpmin=0 / qpmax=69 / qpstep=4 / cplxblur=20.0 / qblur=0.5 / vbv_maxrate=50000 / vbv_bufsize=62500 / nal_hrd=none / filler=0 / ip_ratio=1.40 / aq=1:1.00
Language : English
Default : Yes
Forced : No

Audio #1
ID : 2
Format : AC-3
Format/Info : Audio Coding 3
Format settings, Endianness : Big
Codec ID : A_AC3
Duration : 1 h 39 min
Bit rate mode : Constant
Bit rate : 192 kb/s
Channel(s) : 2 channels
Channel positions : Front: L R
Sampling rate : 48.0 kHz
Frame rate : 31.250 FPS (1536 SPF)
Bit depth : 16 bits
Compression mode : Lossy
Stream size : 137 MiB (6%)
Title : AC3 2.0 @ 192 kbps
Language : Ukrainian
Service kind : Complete Main
Default : Yes
Forced : Yes

Audio #2
ID : 3
Format : AC-3
Format/Info : Audio Coding 3
Format settings, Endianness : Big
Codec ID : A_AC3
Duration : 1 h 39 min
Bit rate mode : Constant
Bit rate : 448 kb/s
Channel(s) : 6 channels
Channel positions : Front: L C R, Side: L R, LFE
Sampling rate : 48.0 kHz
Frame rate : 31.250 FPS (1536 SPF)
Bit depth : 16 bits
Compression mode : Lossy
Stream size : 319 MiB (14%)
Title : AC3 5.1 @ 448 kbps
Language : English
Service kind : Complete Main
Default : No
Forced : No

Text #1
ID : 4
Format : UTF-8
Codec ID : S_TEXT/UTF8
Codec ID/Info : UTF-8 Plain Text
Title : Forced
Language : Ukrainian
Default : Yes
Forced : Yes

Text #2
ID : 5
Format : UTF-8
Codec ID : S_TEXT/UTF8
Codec ID/Info : UTF-8 Plain Text
Title : Full
Language : Ukrainian
Default : No
Forced : No

Text #3
ID : 6
Format : UTF-8
Codec ID : S_TEXT/UTF8
Codec ID/Info : UTF-8 Plain Text
Title : Full
Language : English
Default : No
Forced : No

Text #4
ID : 7
Format : UTF-8
Codec ID : S_TEXT/UTF8
Codec ID/Info : UTF-8 Plain Text
Title : SDH
Language : English
Default : No
Forced : No

Menu
00:00:00.000 : en:Chapter 01
00:05:15.398 : en:Chapter 02
00:09:08.756 : en:Chapter 03
00:12:43.012 : en:Chapter 04
00:16:12.972 : en:Chapter 05
00:22:11.955 : en:Chapter 06
00:26:35.552 : en:Chapter 07
00:29:48.620 : en:Chapter 08
00:33:19.956 : en:Chapter 09
00:36:33.608 : en:Chapter 10
00:40:04.527 : en:Chapter 11
00:43:10.879 : en:Chapter 12
00:46:35.209 : en:Chapter 13
00:51:43.141 : en:Chapter 14
00:55:46.801 : en:Chapter 15
01:01:09.207 : en:Chapter 16
01:04:57.018 : en:Chapter 17
01:07:07.064 : en:Chapter 18
01:11:33.247 : en:Chapter 19
01:14:53.530 : en:Chapter 20
01:17:32.522 : en:Chapter 21
01:22:55.136 : en:Chapter 22
01:26:08.621 : en:Chapter 23
01:28:43.901 : en:Chapter 24



Скачать Суперполицейские.2.Super.Troopers.2.(Джей.Чандрашекхар.Jay.Chandrasekhar).[2018.комедия.криминал.детектив.BDRip-AVC].[Ukr.DUB].[iTunes].torrent без регистрации
Золото ЗОЛОТАЯ РАЗДАЧА! СКАЧАННОЕ НЕ ЗАСЧИТЫВАЕТСЯ! Золото
Дата: Зарегистрирован   [ Тип: внешний ] Как тут cкачать?
MAGNET ссылка
MAGNET ссылка


Скачать .torrent

11 KB

Статус: проверено DHT
Скачан: торрент - 106 раз, раздача полностью - 69 раз
Размер: 2,19 GB
Оценка:  5 (Голосов: 1)
Поблагодарили: 3
Поделиться ссылкой на эту раздачу с друзьями:
В контактеFacebookОдноклассникиTwitterLivejournalМой МирLiveinternet
 

 
Показать сообщения:    


Вы не можете начинать темы
Вы не можете отвечать на сообщения
Вы не можете редактировать свои сообщения
Вы не можете удалять свои сообщения
Вы не можете голосовать в опросах
Вы не можете прикреплять файлы к сообщениям
Вы можете скачивать файлы