Loading...
Error

Скачать Ох уж эти 70-е / Шоу 70−х / That '70s Show (Сезон: 01-08, серии 01-200 из 200) (Дэвид Трейнер / David Trainer) [1998-2006, ситком, HDRip] [MVO] (Несмертельное оружие) + [Original] торрент без регистрации

Статистика раздачи
Размер:  68,36 GB   |    Скачан:  40 раз
Сидов:  1  [  0 KB/s  ]  
 
 
 
Автор Сообщение

leon030982

[] 

Страна: США
Год выпуска: 1998-2006
Студия: Carsey-Werner Company
Жанр: ситком
Продолжительность: 200 x ~00:22:00
Перевод:
Профессиональный (многоголосый закадровый)
Субтитры: нет

Режиссёр: Дэвид Трейнер / David Trainer


В ролях: Мила Кунис, Дэнни Мастерсон, Лаура Препон, Уилмер Вальдеррама, Дебра Джо Рапп, Кертвуд Смит, Дон Старк, Эштон Катчер, Тофер Грейс, Таня Робертс, Томми Чонг, Лиза Робин Келли, Джош Мейерс, Мо Гаффни, Эллисон Мунн, Тим Рейд, Шеннон Элизабет и др.

Описание: «Ох уж эти 70-е» рассказывает о жизни нескольких подростков живущих в Поинт Плейс, Висконсин.

Эрик Форман – обычный подросток, хороший парень, невысокий и немного неуклюжий. Он уверен в себе, остроумен и невозмутим. Его отец Рэд – бывший морпех и ветеран Корейской войны, воспитывает его довольно строго. Отравляет Эрику жизнь и старшая сестра Лори, которой нравится мучить брата и манипулировать родителями. Их мать Китти – бойкая женщина в возрасте и любительница выпить, но при этом чрезмерно заботится о детях.

По соседству с ними живет девушка – Донна Пинсиотти и ее родители – Боб и Мидж. Остальные участники тусовки: Фез, иностранный студент по обмену, который пытается понять Американскую культуру, Джеки Бургхат, ее бывший и настоящий парень – Майкл Келсо, а также Стивен Хайд – конспиролог который верит, что Ксерокс захватит весь мир.

Они обычно проводят время в подвале дома Эрика, думая о своей жизни, родителях и будущем, но им удается постоянно попадать в забавные ситуации и неудачи, живя своей нелегкой жизнью подростков.


Качество: HDRip (Исходник: BDRip 720p)
Формат: AVI
Видео кодек: XviD
Аудио кодек: AC3
Видео: 720x400 (16:9), 25.000 fps, XviD build 50 ~1976 kbps avg, 0.27 bit/pixel
Аудио #1: 48 kHz, AC3 Dolby Digital, 2/0 (L,R) ch, ~192.00 kbps avg | Russian | MVO
Аудио #2: 48 kHz, AC3 Dolby Digital, 2/0 (L,R) ch, ~192.00 kbps avg | English | Original
General
Complete name : E:\That 70s show\That.'70s.Show.S01.HDRip\Oh.uzh.eti.70-e.S01E01.XviD.HDRip.avi
Format : AVI
Format/Info : Audio Video Interleave
File size : 350 MiB
Duration : 22 min 31 s
Overall bit rate : 2 169 kb/s
Director : ANTipiGo
Genre : Comedy
Writing application : VirtualDubMod 1.5.10.2 (build 2540/release)
Original source form/Name : TV-Serie
Copyright : Творческое объединение "Несмертельное оружие"
Comment : http://vk.com/nesmertelnoe_oruzhie

Video
ID : 0
Format : MPEG-4 Visual
Format profile : Advanced Simple@L5
Format settings : BVOP2
Format settings, BVOP : 2
Format settings, QPel : No
Format settings, GMC : No warppoints
Format settings, Matrix : Default (MPEG)
Codec ID : XVID
Codec ID/Hint : XviD
Duration : 22 min 31 s
Bit rate : 1 689 kb/s
Width : 720 pixels
Height : 400 pixels
Display aspect ratio : 16:9
Frame rate : 23.976 (24000/1001) FPS
Color space : YUV
Chroma subsampling : 4:2:0
Bit depth : 8 bits
Scan type : Progressive
Compression mode : Lossy
Bits/(Pixel*Frame) : 0.245
Stream size : 272 MiB (78%)
Writing library : XviD 1.2.1 (UTC 2008-12-04)

Audio #1
ID : 1
Format : AC-3
Format/Info : Audio Coding 3
Format settings, Endianness : Big
Codec ID : 2000
Duration : 22 min 31 s
Bit rate mode : Constant
Bit rate : 192 kb/s
Channel(s) : 2 channels
Channel positions : Front: L R
Sampling rate : 48.0 kHz
Frame rate : 31.250 FPS (1536 SPF)
Bit depth : 16 bits
Compression mode : Lossy
Stream size : 30.9 MiB (9%)
Alignment : Split accross interleaves
Title : [RUS] MVO (Несмертельное оружие)
Service kind : Complete Main

Audio #2
ID : 2
Format : AC-3
Format/Info : Audio Coding 3
Format settings, Endianness : Big
Codec ID : 2000
Duration : 22 min 31 s
Bit rate mode : Constant
Bit rate : 192 kb/s
Channel(s) : 2 channels
Channel positions : Front: L R
Sampling rate : 48.0 kHz
Frame rate : 31.250 FPS (1536 SPF)
Bit depth : 16 bits
Compression mode : Lossy
Stream size : 30.9 MiB (9%)
Alignment : Split accross interleaves
Title : [ENG] Original
Service kind : Complete Main




Скачать Ох.уж.эти.70-е.Шоу.70−х.That.'70s.Show.(Сезон.01-08.серии.01-200.из.200).(Дэвид.Трейнер.David.Trainer).[1998-2006.ситком.HDRip].[MVO].(Несмертельное.оружие).+.[Original].torrent без регистрации
Золото ЗОЛОТАЯ РАЗДАЧА! СКАЧАННОЕ НЕ ЗАСЧИТЫВАЕТСЯ! Золото
Дата: Зарегистрирован   [ Тип: внутренний ] Как тут cкачать?
MAGNET ссылка
MAGNET ссылка


Скачать .torrent

361 KB

Статус: проверено DHT
Скачан: торрент - 40 раз, раздача полностью - 0 раз
Размер: 68,36 GB
Оценка:  - (Голосов: 0)
Поблагодарили: 0
Поделиться ссылкой на эту раздачу с друзьями:
В контактеFacebookОдноклассникиTwitterLivejournalМой МирLiveinternet
 

 
Показать сообщения:    


Вы не можете начинать темы
Вы не можете отвечать на сообщения
Вы не можете редактировать свои сообщения
Вы не можете удалять свои сообщения
Вы не можете голосовать в опросах
Вы не можете прикреплять файлы к сообщениям
Вы можете скачивать файлы