Loading...
Error

Скачать Страшные сказки / Penny Dreadful (Сезон 01) (Дэймон Томас, Джеймс Хоуз, Брайан Кирк) [2014, ужасы, фэнтези, драма, BDRip 1080p] [Коллекционное издание] 5x[MVO] (LostFilm, Amedia, AlexFilm, NewStudio, IdeaFilm) торрент без регистрации

Статистика раздачи
Размер:  36,22 GB   |    Скачан:  41 раз
Сидов:  1  [  0 KB/s  ]  
 
 
 
Автор Сообщение

leon030982

[] 


Страшные сказки / Penny Dreadful



Год выпуска: 2014
Страна: США, Ирландия, Великобритания
Жанр: ужасы, фэнтези, драма
Продолжительность: 1x ~ 00:55:00
Перевод 1: Профессиональный (многоголосый закадровый) LostFilm
Перевод 2: Профессиональный (многоголосый закадровый) Amedia
Перевод 3: Профессиональный (многоголосый закадровый) AlexFilm
Перевод 4: Профессиональный (многоголосый закадровый) NewStudio
Перевод 5: Любительский (многоголосый закадровый) IdeaFilm

Режиссёр: Дэймон Томас, Джеймс Хоуз, Брайан Кирк

В ролях: Ева Грин, Тимоти Далтон, Гарри Тредэвэй, Джош Хартнетт, Рив Карни, Дэнни Сапани, Билли Пайпер, Рори Киннер, Оливия Ллевелин, Алан Армстронг


Лондон, сентябрь 1891 года. Закат эпохи викторианской Англии. Разгул преступности и разврата, случившийся ввиду паршивой политики правительства, достиг апогея. Люди боятся выходить на улицы. И совсем невовремя для полиции маньяк растерзал в клочья женщину с ребёнком, из-за чего начали курсировать слухи о возвращении Джека-Потрошителя...



Качество: BDRip 1080p
Контейнер: MKV
Видео: AVC, 1920x1080 (16:9), 23,976 fps, 9 555 Kbps
Аудио Rus: AC3, 48 kHz, 6 ch, 384 Kbps - LostFilm
Аудио Rus: AC3, 48 kHz, 6 ch, 384 Kbps - Amedia
Аудио Rus: AC3, 48 kHz, 6 ch, 384 Kbps - AlexFilm
Аудио Rus: AC3, 48 kHz, 6 ch, 384 Kbps - NewStudio
Аудио Rus: AC3, 48 kHz, 6 ch, 384 Kbps - IdeaFilm
Аудио Eng: AC3, 48 kHz, 6 ch, 640 Kbps
Субтитры: Русские, Английские
General
Unique ID : 228241704398988806565348713666346951840 (0xABB5C0D8A976A1DDA5F81F5ACA6324A0)
Complete name : E:\Penny Dreadful\Season 1\Penny.Dreadful.S01E01.1080p.mkv
Format : Matroska
Format version : Version 4 / Version 2
File size : 4.68 GiB
Duration : 53 min 1 s
Overall bit rate : 12.6 Mb/s
Encoded date : UTC 2017-07-12 16:08:49
Writing application : mkvmerge v9.9.0 ('Pick Up') 64bit
Writing library : libebml v1.3.4 + libmatroska v1.4.5

Video
ID : 1
Format : AVC
Format/Info : Advanced Video Codec
Format profile : High@L4.1
Format settings, CABAC : Yes
Format settings, ReFrames : 4 frames
Codec ID : V_MPEG4/ISO/AVC
Duration : 53 min 1 s
Bit rate : 10.1 Mb/s
Width : 1 920 pixels
Height : 1 080 pixels
Display aspect ratio : 16:9
Frame rate mode : Constant
Frame rate : 23.976 FPS
Color space : YUV
Chroma subsampling : 4:2:0
Bit depth : 8 bits
Scan type : Progressive
Bits/(Pixel*Frame) : 0.203
Stream size : 3.73 GiB (80%)
Writing library : x264 core 142 r2479 dd79a61
Encoding settings : cabac=1 / ref=4 / deblock=1:0:0 / analyse=0x3:0x133 / me=umh / subme=7 / psy=1 / psy_rd=1.00:0.00 / mixed_ref=1 / me_range=16 / chroma_me=1 / trellis=1 / 8x8dct=1 / cqm=0 / deadzone=21,11 / fast_pskip=0 / chroma_qp_offset=-2 / threads=18 / lookahead_threads=3 / sliced_threads=0 / nr=0 / decimate=1 / interlaced=0 / bluray_compat=0 / constrained_intra=0 / bframes=3 / b_pyramid=2 / b_adapt=1 / b_bias=0 / direct=1 / weightb=1 / open_gop=0 / weightp=2 / keyint=250 / keyint_min=23 / scenecut=40 / intra_refresh=0 / rc_lookahead=40 / rc=2pass / mbtree=1 / bitrate=10075 / ratetol=1.0 / qcomp=0.60 / qpmin=0 / qpmax=69 / qpstep=4 / cplxblur=20.0 / qblur=0.5 / ip_ratio=1.40 / aq=1:1.00
Language : English
Default : Yes
Forced : No

Audio #1
ID : 3
Format : AC-3
Format/Info : Audio Coding 3
Format settings, Endianness : Big
Codec ID : A_AC3
Duration : 52 min 45 s
Bit rate mode : Constant
Bit rate : 384 kb/s
Channel(s) : 6 channels
Channel positions : Front: L C R, Side: L R, LFE
Sampling rate : 48.0 kHz
Frame rate : 31.250 FPS (1536 spf)
Bit depth : 16 bits
Compression mode : Lossy
Delay relative to video : 11 s 750 ms
Stream size : 145 MiB (3%)
Title : LostFilm
Language : Russian
Service kind : Complete Main
Default : Yes
Forced : No

Audio #2
ID : 4
Format : AC-3
Format/Info : Audio Coding 3
Format settings, Endianness : Big
Codec ID : A_AC3
Duration : 52 min 45 s
Bit rate mode : Constant
Bit rate : 384 kb/s
Channel(s) : 6 channels
Channel positions : Front: L C R, Side: L R, LFE
Sampling rate : 48.0 kHz
Frame rate : 31.250 FPS (1536 spf)
Bit depth : 16 bits
Compression mode : Lossy
Delay relative to video : 11 s 750 ms
Stream size : 145 MiB (3%)
Title : Amedia (PROPER)
Language : Russian
Service kind : Complete Main
Default : No
Forced : No

Audio #3
ID : 5
Format : AC-3
Format/Info : Audio Coding 3
Format settings, Endianness : Big
Codec ID : A_AC3
Duration : 52 min 45 s
Bit rate mode : Constant
Bit rate : 384 kb/s
Channel(s) : 6 channels
Channel positions : Front: L C R, Side: L R, LFE
Sampling rate : 48.0 kHz
Frame rate : 31.250 FPS (1536 spf)
Bit depth : 16 bits
Compression mode : Lossy
Delay relative to video : 11 s 750 ms
Stream size : 145 MiB (3%)
Title : AlexFilm (PROPER)
Language : Russian
Service kind : Complete Main
Default : No
Forced : No

Audio #4
ID : 6
Format : AC-3
Format/Info : Audio Coding 3
Format settings, Endianness : Big
Codec ID : A_AC3
Duration : 52 min 45 s
Bit rate mode : Constant
Bit rate : 384 kb/s
Channel(s) : 6 channels
Channel positions : Front: L C R, Side: L R, LFE
Sampling rate : 48.0 kHz
Frame rate : 31.250 FPS (1536 spf)
Bit depth : 16 bits
Compression mode : Lossy
Delay relative to video : 11 s 750 ms
Stream size : 145 MiB (3%)
Title : NewStudio
Language : Russian
Service kind : Complete Main
Default : No
Forced : No

Audio #5
ID : 7
Format : AC-3
Format/Info : Audio Coding 3
Format settings, Endianness : Big
Codec ID : A_AC3
Duration : 52 min 46 s
Bit rate mode : Constant
Bit rate : 384 kb/s
Channel(s) : 6 channels
Channel positions : Front: L C R, Side: L R, LFE
Sampling rate : 48.0 kHz
Frame rate : 31.250 FPS (1536 spf)
Bit depth : 16 bits
Compression mode : Lossy
Delay relative to video : 11 s 700 ms
Stream size : 145 MiB (3%)
Title : IdeaFilm
Language : Russian
Service kind : Complete Main
Default : No
Forced : No

Audio #6
ID : 8
Format : AC-3
Format/Info : Audio Coding 3
Format settings, Endianness : Big
Codec ID : A_AC3
Duration : 53 min 1 s
Bit rate mode : Constant
Bit rate : 640 kb/s
Channel(s) : 6 channels
Channel positions : Front: L C R, Side: L R, LFE
Sampling rate : 48.0 kHz
Frame rate : 31.250 FPS (1536 spf)
Bit depth : 16 bits
Compression mode : Lossy
Stream size : 243 MiB (5%)
Language : English
Service kind : Complete Main
Default : No
Forced : No

Text #1
ID : 2
Format : UTF-8
Codec ID : S_TEXT/UTF8
Codec ID/Info : UTF-8 Plain Text
Duration : 49 min 52 s
Bit rate : 69 b/s
Count of elements : 541
Stream size : 25.5 KiB (0%)
Default : Yes
Forced : No

Text #2
ID : 9
Format : UTF-8
Codec ID : S_TEXT/UTF8
Codec ID/Info : UTF-8 Plain Text
Duration : 51 min 31 s
Bit rate : 72 b/s
Count of elements : 768
Stream size : 27.5 KiB (0%)
Language : English
Default : No
Forced : No

Menu
00:00:00.000 : en:00:00:00.000
00:04:18.049 : en:00:04:18.049
00:10:51.192 : en:00:10:51.192
00:21:57.399 : en:00:21:57.399
00:28:59.154 : en:00:28:59.154
00:39:45.300 : en:00:39:45.300
00:51:59.199 : en:00:51:59.199



Скачать Страшные.сказки.Penny.Dreadful.(Сезон.01).(Дэймон.Томас.Джеймс.Хоуз.Брайан.Кирк).[2014.ужасы.фэнтези.драма.BDRip.1080p].[Коллекционное.издание].5x[MVO].(LostFilm.Amedia.AlexFilm.NewStudio.IdeaFilm).torrent без регистрации
Золото ЗОЛОТАЯ РАЗДАЧА! СКАЧАННОЕ НЕ ЗАСЧИТЫВАЕТСЯ! Золото
Дата: Зарегистрирован   [ Тип: внутренний ] Как тут cкачать?
MAGNET ссылка
MAGNET ссылка


Скачать .torrent

182 KB

Статус: проверено DHT
Скачан: торрент - 41 раз, раздача полностью - 3 раз
Размер: 36,22 GB
Оценка:  - (Голосов: 0)
Поблагодарили: 0
Поделиться ссылкой на эту раздачу с друзьями:
В контактеFacebookОдноклассникиTwitterLivejournalМой МирLiveinternet
 

 
Показать сообщения:    


Вы не можете начинать темы
Вы не можете отвечать на сообщения
Вы не можете редактировать свои сообщения
Вы не можете удалять свои сообщения
Вы не можете голосовать в опросах
Вы не можете прикреплять файлы к сообщениям
Вы можете скачивать файлы