Loading...
Error

Скачать Страшные сказки / Penny Dreadful (Сезон 02) (Дэймон Томас, Джеймс Хоуз, Брайан Кирк) [2015, ужасы, фэнтези, драма, BDRip 1080p] [Коллекционное издание] 5x[MVO] (LostFilm, Amedia, NewStudio, AlexFilm, GearsMedia) торрент без регистрации

Статистика раздачи
Размер:  47,62 GB   |    Скачан:  38 раз
Сидов:  1  [  0 KB/s  ]  
 
 
 
Автор Сообщение

leon030982

[] 


Страшные сказки / Penny Dreadful



Год выпуска: 2015
Страна: США, Ирландия, Великобритания
Жанр: ужасы, фэнтези, драма
Продолжительность: 1x ~ 00:55:00
Перевод 1: Профессиональный (многоголосый закадровый) LostFilm
Перевод 2: Профессиональный (многоголосый закадровый) Amedia
Перевод 3: Профессиональный (многоголосый закадровый) NewStudio
Перевод 4: Профессиональный (многоголосый закадровый) AlexFilm
Перевод 5: Профессиональный (многоголосый закадровый) GearsMedia

Режиссёр: Дэймон Томас, Джеймс Хоуз, Брайан Кирк

В ролях: Ева Грин, Тимоти Далтон, Гарри Тредэвэй, Джош Хартнетт, Рив Карни, Дэнни Сапани, Билли Пайпер, Рори Киннер, Оливия Ллевелин, Алан Армстронг


Лондон, сентябрь 1891 года. Закат эпохи викторианской Англии. Разгул преступности и разврата, случившийся ввиду паршивой политики правительства, достиг апогея. Люди боятся выходить на улицы. И совсем невовремя для полиции маньяк растерзал в клочья женщину с ребёнком, из-за чего начали курсировать слухи о возвращении Джека-Потрошителя...



Качество: BDRip 1080p
Контейнер: MKV
Видео: AVC, 1920x1080 (16:9), 23,976 fps, 10 000 Kbps
Аудио Rus: AC3, 48 kHz, 6 ch, 384 Kbps - LostFilm
Аудио Rus: AC3, 48 kHz, 6 ch, 384 Kbps - Amedia
Аудио Rus: AC3, 48 kHz, 6 ch, 384 Kbps - NewStudio
Аудио Rus: AC3, 48 kHz, 6 ch, 384 Kbps - AlexFilm
Аудио Rus: AC3, 48 kHz, 6 ch, 384 Kbps - GearsMedia
Аудио Eng: AC3, 48 kHz, 6 ch, 640 Kbps
Субтитры: Русские, Английские
General
Unique ID : 205698800131134947290988484302827521893 (0x9AC025DACA0703DE956D905F9F3D8765)
Complete name : E:\Penny Dreadful\Season 2\Penny.Dreadful.S02E01.1080p.mkv
Format : Matroska
Format version : Version 4 / Version 2
File size : 5.10 GiB
Duration : 55 min 2 s
Overall bit rate : 13.3 Mb/s
Encoded date : UTC 2017-07-20 15:52:50
Writing application : mkvmerge v7.2.0 ('On Every Street') 64bit built on Sep 13 2014 15:52:10
Writing library : libebml v1.3.0 + libmatroska v1.4.1

Video
ID : 7
Format : AVC
Format/Info : Advanced Video Codec
Format profile : High@L4.1
Format settings, CABAC : Yes
Format settings, ReFrames : 4 frames
Codec ID : V_MPEG4/ISO/AVC
Duration : 55 min 2 s
Bit rate : 10.7 Mb/s
Width : 1 920 pixels
Height : 1 080 pixels
Display aspect ratio : 16:9
Frame rate mode : Constant
Frame rate : 23.976 (24000/1001) FPS
Color space : YUV
Chroma subsampling : 4:2:0
Bit depth : 8 bits
Scan type : Progressive
Bits/(Pixel*Frame) : 0.215
Stream size : 4.12 GiB (81%)
Writing library : x264 core 148 r2597 e86f3a1
Encoding settings : cabac=1 / ref=4 / deblock=1:-1:-1 / analyse=0x3:0x113 / me=umh / subme=7 / psy=1 / psy_rd=1.00:0.00 / mixed_ref=1 / me_range=16 / chroma_me=1 / trellis=1 / 8x8dct=1 / cqm=0 / deadzone=21,11 / fast_pskip=1 / chroma_qp_offset=-2 / threads=12 / lookahead_threads=2 / sliced_threads=0 / nr=0 / decimate=1 / interlaced=0 / bluray_compat=0 / constrained_intra=0 / bframes=3 / b_pyramid=2 / b_adapt=2 / b_bias=0 / direct=3 / weightb=1 / open_gop=0 / weightp=2 / keyint=250 / keyint_min=23 / scenecut=40 / intra_refresh=0 / rc_lookahead=40 / rc=2pass / mbtree=1 / bitrate=10711 / ratetol=1.0 / qcomp=0.60 / qpmin=0 / qpmax=69 / qpstep=4 / cplxblur=20.0 / qblur=0.5 / vbv_maxrate=50000 / vbv_bufsize=50000 / nal_hrd=none / filler=0 / ip_ratio=1.40 / aq=1:1.00
Language : English
Default : Yes
Forced : No

Audio #1
ID : 1
Format : AC-3
Format/Info : Audio Coding 3
Format settings, Endianness : Big
Codec ID : A_AC3
Duration : 54 min 45 s
Bit rate mode : Constant
Bit rate : 384 kb/s
Channel(s) : 6 channels
Channel positions : Front: L C R, Side: L R, LFE
Sampling rate : 48.0 kHz
Frame rate : 31.250 FPS (1536 spf)
Bit depth : 16 bits
Compression mode : Lossy
Delay relative to video : 9 s 0 ms
Stream size : 150 MiB (3%)
Title : LostFilm
Language : Russian
Service kind : Complete Main
Default : Yes
Forced : No

Audio #2
ID : 2
Format : AC-3
Format/Info : Audio Coding 3
Format settings, Endianness : Big
Codec ID : A_AC3
Duration : 54 min 45 s
Bit rate mode : Constant
Bit rate : 384 kb/s
Channel(s) : 6 channels
Channel positions : Front: L C R, Side: L R, LFE
Sampling rate : 48.0 kHz
Frame rate : 31.250 FPS (1536 spf)
Bit depth : 16 bits
Compression mode : Lossy
Delay relative to video : 9 s 0 ms
Stream size : 150 MiB (3%)
Title : Amedia
Language : Russian
Service kind : Complete Main
Default : No
Forced : No

Audio #3
ID : 3
Format : AC-3
Format/Info : Audio Coding 3
Format settings, Endianness : Big
Codec ID : A_AC3
Duration : 54 min 49 s
Bit rate mode : Constant
Bit rate : 384 kb/s
Channel(s) : 6 channels
Channel positions : Front: L C R, Side: L R, LFE
Sampling rate : 48.0 kHz
Frame rate : 31.250 FPS (1536 spf)
Bit depth : 16 bits
Compression mode : Lossy
Delay relative to video : 9 s 0 ms
Stream size : 151 MiB (3%)
Title : NewStudio
Language : Russian
Service kind : Complete Main
Default : No
Forced : No

Audio #4
ID : 4
Format : AC-3
Format/Info : Audio Coding 3
Format settings, Endianness : Big
Codec ID : A_AC3
Duration : 54 min 45 s
Bit rate mode : Constant
Bit rate : 384 kb/s
Channel(s) : 6 channels
Channel positions : Front: L C R, Side: L R, LFE
Sampling rate : 48.0 kHz
Frame rate : 31.250 FPS (1536 spf)
Bit depth : 16 bits
Compression mode : Lossy
Delay relative to video : 9 s 0 ms
Stream size : 150 MiB (3%)
Title : AlexFilm
Language : Russian
Service kind : Complete Main
Default : No
Forced : No

Audio #5
ID : 5
Format : AC-3
Format/Info : Audio Coding 3
Format settings, Endianness : Big
Codec ID : A_AC3
Duration : 54 min 45 s
Bit rate mode : Constant
Bit rate : 384 kb/s
Channel(s) : 6 channels
Channel positions : Front: L C R, Side: L R, LFE
Sampling rate : 48.0 kHz
Frame rate : 31.250 FPS (1536 spf)
Bit depth : 16 bits
Compression mode : Lossy
Delay relative to video : 9 s 0 ms
Stream size : 150 MiB (3%)
Title : GearsMedia
Language : Russian
Service kind : Complete Main
Default : No
Forced : No

Audio #6
ID : 8
Format : AC-3
Format/Info : Audio Coding 3
Format settings, Endianness : Big
Codec ID : A_AC3
Duration : 55 min 2 s
Bit rate mode : Constant
Bit rate : 640 kb/s
Channel(s) : 6 channels
Channel positions : Front: L C R, Side: L R, LFE
Sampling rate : 48.0 kHz
Frame rate : 31.250 FPS (1536 spf)
Bit depth : 16 bits
Compression mode : Lossy
Stream size : 252 MiB (5%)
Language : English
Service kind : Complete Main
Default : No
Forced : No

Text #1
ID : 6
Format : UTF-8
Codec ID : S_TEXT/UTF8
Codec ID/Info : UTF-8 Plain Text
Duration : 53 min 57 s
Bit rate : 39 b/s
Count of elements : 592
Stream size : 15.5 KiB (0%)
Language : English
Default : No
Forced : No

Text #2
ID : 9
Format : UTF-8
Codec ID : S_TEXT/UTF8
Codec ID/Info : UTF-8 Plain Text
Duration : 52 min 37 s
Bit rate : 58 b/s
Count of elements : 481
Stream size : 22.7 KiB (0%)
Language : Russian
Default : Yes
Forced : No



Скачать Страшные.сказки.Penny.Dreadful.(Сезон.02).(Дэймон.Томас.Джеймс.Хоуз.Брайан.Кирк).[2015.ужасы.фэнтези.драма.BDRip.1080p].[Коллекционное.издание].5x[MVO].(LostFilm.Amedia.NewStudio.AlexFilm.GearsMedia).torrent без регистрации
Золото ЗОЛОТАЯ РАЗДАЧА! СКАЧАННОЕ НЕ ЗАСЧИТЫВАЕТСЯ! Золото
Дата: Зарегистрирован   [ Тип: внутренний ] Как тут cкачать?
MAGNET ссылка
MAGNET ссылка


Скачать .torrent

239 KB

Статус: проверено DHT
Скачан: торрент - 38 раз, раздача полностью - 0 раз
Размер: 47,62 GB
Оценка:  - (Голосов: 0)
Поблагодарили: 0
Поделиться ссылкой на эту раздачу с друзьями:
В контактеFacebookОдноклассникиTwitterLivejournalМой МирLiveinternet
 

 
Показать сообщения:    


Вы не можете начинать темы
Вы не можете отвечать на сообщения
Вы не можете редактировать свои сообщения
Вы не можете удалять свои сообщения
Вы не можете голосовать в опросах
Вы не можете прикреплять файлы к сообщениям
Вы можете скачивать файлы