Loading...
Error

Скачать Лучше звоните Солу / Better Call Saul / Сезон: 4 / Серии: 1 из 10 (Винс Гиллиган, Питер Гулд / Vince Gilligan, Peter Gould) [2018, драма, криминал, WEBRip 720p] [MVO] (LostFilm) + [DVO] (Кубик в кубе) + [Original] + 2x[Sub] (Rus, Eng) торрент без регистрации

Статистика раздачи
Размер:  2,08 GB   |    Скачан:  33 раза
Сидов:  1  [  0 KB/s  ]  
 
 
 
Автор Сообщение

leon030982

[] 

Лучше звоните Солу - Четвёртый сезон
Better Call Saul - The Fourth Season
Год выпуска: 2018
Страна: США
Производство: AMC
Жанр: драма, криминал
Продолжительность: 00:45:00
Перевод #1: Профессиональный (многоголосый закадровый) LostFilm
Перевод #2: Профессиональный (двухголосый закадровый) Кубик в кубе

Авторы идеи: Винс Гиллиган, Питер Гулд / Vince Gilligan, Peter Gould

В ролях: Боб Оденкёрк, Джонатан Бэнкс, Рей Сихорн, Патрик Фибиан, Майкл Мэндо, Джанкарло Эспозито, Марк Марголис, Керри Кондон, Джеремая Битсуй, Хавьер Грахеда, Винсент Фуэнтес, Эд Бегли-мл., Энн Кьюсак, Деннис Буцикарис, Лора Фрейзер, Лавелл Крофорд, Даниэль Монкада, Луис Монкада, Рэй Кэмпбелл, Тони Долтон, Стефан Капичич и др.


История об испытаниях и невзгодах, которые приходится преодолеть Солу Гудману, адвокату по уголовным делам, в тот период, когда он пытается открыть свою собственную адвокатскую контору в Альбукерке, штат Нью-Мексико.

Sample

Качество: WEBRip 720p (NTb)
Формат: MKV
Видео: x264, 1280x720 (16:9), 23.976 fps, ~4221 kbps avg, 0.191 bit/pixel
Аудио #1: Russian 48.0 KHz, AC3, 3/2 (L,C,R,l,r) + LFE ch, ~640.00 kbps avg |LostFilm|
Аудио #2: Russian 48.0 KHz, AC3, 3/2 (L,C,R,l,r) + LFE ch, ~640.00 kbps avg |Кубик в кубе|
Аудио #3: English 48.0 KHz, EAC3, 3/2 (L,C,R,l,r) + LFE ch, ~640.00 kbps avg |Original|
Субтитры: русские (Netflix), английские (SDH)
Сборка - whip93.
Работа со звуком - itunestv, messafan, whip93.
General
Unique ID : 280635500849473687545029754187993634587 (0xD3206E73CBD95CFEC64D659D6A34D71B)
Complete name : C:\Сериалы\Better Call Saul - The Complete 4th Season - whip93\Better.Call.Saul.S04E01.Smoke.720p.WEBRip.DD5.1.x264.-whip93.mkv
Format : Matroska
Format version : Version 4 / Version 2
File size : 2.08 GiB
Duration : 48 min 47 s
Overall bit rate : 6 117 kb/s
Movie name : Лучше звоните Солу | Better Call Saul (S04E01) - Release by whip93
Encoded date : UTC 2018-08-10 12:30:22
Writing application : mkvmerge v22.0.0 ('At The End Of The World') 64-bit
Writing library : libebml v1.3.5 + libmatroska v1.4.8

Video
ID : 1
Format : AVC
Format/Info : Advanced Video Codec
Format profile : High@L4.1
Format settings : CABAC / 9 Ref Frames
Format settings, CABAC : Yes
Format settings, ReFrames : 9 frames
Codec ID : V_MPEG4/ISO/AVC
Duration : 48 min 31 s
Bit rate : 4 221 kb/s
Width : 1 280 pixels
Height : 720 pixels
Display aspect ratio : 16:9
Frame rate mode : Constant
Frame rate : 23.976 (24000/1001) FPS
Color space : YUV
Chroma subsampling : 4:2:0
Bit depth : 8 bits
Scan type : Progressive
Bits/(Pixel*Frame) : 0.191
Stream size : 1.43 GiB (69%)
Title : NTb's WEBRip
Writing library : x264 core 148 r2744 b97ae06
Encoding settings : cabac=1 / ref=9 / deblock=1:-3:-3 / analyse=0x3:0x133 / me=umh / subme=10 / psy=1 / psy_rd=1.00:0.00 / mixed_ref=1 / me_range=48 / chroma_me=1 / trellis=2 / 8x8dct=1 / cqm=0 / deadzone=21,11 / fast_pskip=0 / chroma_qp_offset=-2 / threads=12 / lookahead_threads=2 / sliced_threads=0 / nr=0 / decimate=0 / interlaced=0 / bluray_compat=0 / constrained_intra=0 / bframes=9 / b_pyramid=0 / b_adapt=2 / b_bias=0 / direct=3 / weightb=1 / open_gop=0 / weightp=2 / keyint=240 / keyint_min=23 / scenecut=40 / intra_refresh=0 / rc_lookahead=60 / rc=crf / mbtree=0 / crf=17.0 / qcomp=0.60 / qpmin=10 / qpmax=51 / qpstep=4 / vbv_maxrate=62500 / vbv_bufsize=78125 / crf_max=0.0 / nal_hrd=none / filler=0 / ip_ratio=1.40 / pb_ratio=1.30 / aq=3:0.70
Language : English
Default : Yes
Forced : No

Audio #1
ID : 2
Format : AC-3
Format/Info : Audio Coding 3
Codec ID : A_AC3
Duration : 48 min 31 s
Bit rate mode : Constant
Bit rate : 640 kb/s
Channel(s) : 6 channels
Channel positions : Front: L C R, Side: L R, LFE
Sampling rate : 48.0 kHz
Frame rate : 31.250 FPS (1536 SPF)
Bit depth : 16 bits
Compression mode : Lossy
Stream size : 222 MiB (10%)
Title : MVO (LostFilm)
Language : Russian
Service kind : Complete Main
Default : Yes
Forced : No

Audio #2
ID : 3
Format : AC-3
Format/Info : Audio Coding 3
Codec ID : A_AC3
Duration : 48 min 47 s
Bit rate mode : Constant
Bit rate : 640 kb/s
Channel(s) : 6 channels
Channel positions : Front: L C R, Side: L R, LFE
Sampling rate : 48.0 kHz
Frame rate : 31.250 FPS (1536 SPF)
Bit depth : 16 bits
Compression mode : Lossy
Stream size : 223 MiB (10%)
Title : DVO (Кубик в кубе)
Language : Russian
Service kind : Complete Main
Default : No
Forced : No

Audio #3
ID : 4
Format : E-AC-3
Format/Info : Enhanced Audio Coding 3
Codec ID : A_EAC3
Duration : 48 min 47 s
Bit rate mode : Constant
Bit rate : 640 kb/s
Channel(s) : 6 channels
Channel positions : Front: L C R, Side: L R, LFE
Sampling rate : 48.0 kHz
Frame rate : 187.500 FPS (256 SPF)
Compression mode : Lossy
Stream size : 223 MiB (10%)
Title : Original
Language : English
Service kind : Complete Main
Default : No
Forced : No

Text #1
ID : 5
Format : UTF-8
Codec ID : S_TEXT/UTF8
Codec ID/Info : UTF-8 Plain Text
Duration : 48 min 2 s
Bit rate : 52 b/s
Count of elements : 417
Stream size : 18.5 KiB (0%)
Title : Яна Краснова
Language : Russian
Default : No
Forced : No

Text #2
ID : 6
Format : UTF-8
Codec ID : S_TEXT/UTF8
Codec ID/Info : UTF-8 Plain Text
Duration : 47 min 29 s
Bit rate : 41 b/s
Count of elements : 441
Stream size : 14.5 KiB (0%)
Title : Original (SDH)
Language : English
Default : No
Forced : No
Когда раздача ведётся путём добавления новых серий, при каждом добавлении создаётся новый торрент. Чтобы начать докачку новой серии, пользователям необходимо сделать следующее:
(1) остановить скачивание,
(2) удалить старый торрент у себя из клиента (старые серии удалять не надо),
(3) скачать новый торрент и запустить его у себя в клиенте вместо старого, при этом указать клиенту путь в старую папку, куда и должно происходить скачивание новых серий.
Ваш клиент при этом должен произвести хеширование (проверку) старой папки (если не производит сам - помогите ему сделать это), и будет докачивать только те серии, которых у вас ещё нет. Старые серии при этом не удаляются, а продолжают раздаваться!
Если вы уже удалили старые серии, то предотвратить повторную закачку старых серий можно, отжав галочку в соответствующих местах при запуске нового торрента. По возможности, желательно не удалять старые серии как можно дольше, чтобы релизер не столько продолжал раздавать старые серии, а смог сконцентрироваться на новых.



Скачать Лучше.звоните.Солу.Better.Call.Saul.Сезон.4.Серии.1.из.10.(Винс.Гиллиган.Питер.Гулд.Vince.Gilligan.Peter.Gould).[2018.драма.криминал.WEBRip.720p].[MVO].(LostFilm).+.[DVO].(Кубик.в.кубе).+.[Original].+.2x[Sub].(Rus.Eng).torrent без регистрации
Золото ЗОЛОТАЯ РАЗДАЧА! СКАЧАННОЕ НЕ ЗАСЧИТЫВАЕТСЯ! Золото
Дата: Зарегистрирован   [ Тип: внутренний ] Как тут cкачать?
MAGNET ссылка
MAGNET ссылка


Скачать .torrent

11 KB

Статус: проверено DHT
Скачан: торрент - 33 раз, раздача полностью - 4 раз
Размер: 2,08 GB
Оценка:  - (Голосов: 0)
Поблагодарили: 0
Поделиться ссылкой на эту раздачу с друзьями:
В контактеFacebookОдноклассникиTwitterLivejournalМой МирLiveinternet
 

 
Показать сообщения:    


Вы не можете начинать темы
Вы не можете отвечать на сообщения
Вы не можете редактировать свои сообщения
Вы не можете удалять свои сообщения
Вы не можете голосовать в опросах
Вы не можете прикреплять файлы к сообщениям
Вы можете скачивать файлы