Loading...
Error

Скачать Достать коротышку / Get Shorty / Сезон: 2 / Серии: 1-5 из 10 (Адам Аркин, Дэниэл Эттиэс, Эдвард Бьянчи) [2018, драма, комедия, WEB-DL 1080p] [MVO] (SDI Media) + Original + Subs (Eng) торрент без регистрации

Статистика раздачи
Размер:  12,27 GB   |    Скачан:  96 раз
Сидов:  1  [  0 KB/s  ]  
 
 
 
Автор Сообщение

leon030982

[] 

Достать коротышку / Get Shorty


Год выпуска: 2018
Страна: США
Жанр: Комедия, криминал
Продолжительность: ~ 00:54:00
Перевод: Профессиональный (многоголосый закадровый) SDI Media по заказу Viasat

Режиссёр: Адам Аркин, Дэниэл Эттиэс, Эдвард Бьянчи

В ролях: Крис О`Дауд, Рэй Романо, Джиллиан Вигмэн, Кристин Элиз, Люси Уолтерс, Кристоффер Полаха, Шон Бриджерс, Лора Каннингэм, Меган Стивенсон, Брэд Картер

Описание: Продолжение истории двух незадачливых гангстеров, которые решили, что самым удачным вложением денег мафии будет... собственный фильм! Когда в активе есть хитовый сценарий, толковый продюсер и щедрый инвестор - это уже потенциальный блокбастер! Особенно если никто не запрещает подкупать, шантажировать и устранять конкурентов.



Качество: WEB-DL 1080p
Контейнер: MKV
Видео: AVC, 1920x1080 (16:9), 25.000 fps ~6000 kbps
Аудио #1: 48 kHz, AC3, 2 ch., 192 kbps | Rus
Аудио #2: 48 kHz, AC3, 6 ch., 384 kbps | Eng
Субтитры: Английские
Реклама: Отсутствует
Релиз TeamHD - Khoren

Озвучивание: SDI Media по заказу Viasat
General
Unique ID : 207804122871197889587104962591993923106 (0x9C559E47A11A192F8EBD360F836C8622)
Complete name : E:\Torrent\Get.Shorty.S02.1080p.STAN.WEB-DL.H.264-THD\Get.Shorty.S02E01.And.What.Have.We.Learned.1080p.STAN.WEB-DL.H.264-THD.mkv
Format : Matroska
Format version : Version 4 / Version 2
File size : 2.78 GiB
Duration : 58 min 40 s
Overall bit rate : 6 794 kb/s
Encoded date : UTC 2018-08-15 12:51:57
Writing application : mkvmerge v18.0.0 ('Apricity') 64-bit
Writing library : libebml v1.3.5 + libmatroska v1.4.8
Cover : Yes
Attachments : cover.shorty.jpg

Video
ID : 1
Format : AVC
Format/Info : Advanced Video Codec
Format profile : High@L4
Format settings : CABAC / 4 Ref Frames
Format settings, CABAC : Yes
Format settings, RefFrames : 4 frames
Codec ID : V_MPEG4/ISO/AVC
Duration : 58 min 40 s
Bit rate : 6 214 kb/s
Width : 1 920 pixels
Height : 1 080 pixels
Display aspect ratio : 16:9
Frame rate mode : Constant
Frame rate : 25.000 FPS
Color space : YUV
Chroma subsampling : 4:2:0
Bit depth : 8 bits
Scan type : Progressive
Bits/(Pixel*Frame) : 0.120
Stream size : 2.55 GiB (91%)
Writing library : Zencoder Video Encoding System
Language : English
Default : Yes
Forced : No
Color range : Limited
Color primaries : BT.709
Transfer characteristics : BT.709
Matrix coefficients : BT.709

Audio #1
ID : 2
Format : AC-3
Format/Info : Audio Coding 3
Codec ID : A_AC3
Duration : 58 min 40 s
Bit rate mode : Constant
Bit rate : 192 kb/s
Channel(s) : 2 channels
Channel positions : Front: L R
Sampling rate : 48.0 kHz
Frame rate : 31.250 FPS (1536 SPF)
Bit depth : 16 bits
Compression mode : Lossy
Stream size : 80.6 MiB (3%)
Language : Russian
Service kind : Complete Main
Default : Yes
Forced : No

Audio #2
ID : 3
Format : AC-3
Format/Info : Audio Coding 3
Codec ID : A_AC3
Duration : 58 min 40 s
Bit rate mode : Constant
Bit rate : 384 kb/s
Channel(s) : 6 channels
Channel positions : Front: L C R, Side: L R, LFE
Sampling rate : 48.0 kHz
Frame rate : 31.250 FPS (1536 SPF)
Bit depth : 16 bits
Compression mode : Lossy
Stream size : 161 MiB (6%)
Language : English
Service kind : Complete Main
Default : No
Forced : No

Text
ID : 4
Format : UTF-8
Codec ID : S_TEXT/UTF8
Codec ID/Info : UTF-8 Plain Text
Duration : 57 min 1 s
Bit rate : 82 b/s
Count of elements : 1088
Stream size : 34.6 KiB (0%)
Language : English
Default : No
Forced : No
Внимание! Раздача ведётся путём добавления новых серий; при каждом добавлении создётся новый торрент. Чтобы начать докачку новой серии, пользователям необходимо сделать следующее:
Остановить скачивание.
Удалить старый торрент у себя из клиента (старые серии удалять не надо).
Скачать новый торрент и запустить его у себя в клиенте вместо старого, при этом указать клиенту путь в старую папку куда и должно происходить скачивание новых серий.
Ваш клиент при этом должен произвести хеширование (проверку) старой папки (если не производит сам - помогите ему сделать это), и будет докачивать только те серии которых у вас ещё нет. Старые серии при этом не удаляются, а продолжают раздаваться!
Eсли вы уже удалили старые серии, то предотвратить повторную закачку старых серий можно, отжав галочку в соответсвующих местах при запуске нового торрента. По возможности, желательно не удалять старые серии как можно дольше чтобы релизёр не столько продолжал раздавать старые серии, а смог сконцентрироваться на новых.



Скачать Достать.коротышку.Get.Shorty.Сезон.2.Серии.1-5.из.10.(Адам.Аркин.Дэниэл.Эттиэс.Эдвард.Бьянчи).[2018.драма.комедия.WEB-DL.1080p].[MVO].(SDI.Media).+.Original.+.Subs.(Eng).torrent без регистрации
Золото ЗОЛОТАЯ РАЗДАЧА! СКАЧАННОЕ НЕ ЗАСЧИТЫВАЕТСЯ! Золото
Дата: Зарегистрирован   [ Тип: внутренний ] Как тут cкачать?
MAGNET ссылка
MAGNET ссылка


Скачать .torrent

32 KB

Статус: проверено DHT
Скачан: торрент - 96 раз, раздача полностью - 1 раз
Размер: 12,27 GB
Оценка:  - (Голосов: 0)
Поблагодарили: 2
Поделиться ссылкой на эту раздачу с друзьями:
В контактеFacebookОдноклассникиTwitterLivejournalМой МирLiveinternet
 

 
Показать сообщения:    


Вы не можете начинать темы
Вы не можете отвечать на сообщения
Вы не можете редактировать свои сообщения
Вы не можете удалять свои сообщения
Вы не можете голосовать в опросах
Вы не можете прикреплять файлы к сообщениям
Вы можете скачивать файлы