Loading...
Error

Скачать Мистер Мерседес / Mr. Mercedes (Сезон 02, серии 01-04 из 10) (Джек Бендер) [2018, Триллер, детектив, WEBRip] [720p] [MVO] (GostFilm) торрент без регистрации

Статистика раздачи
Размер:  3,78 GB   |    Скачан:  113 раз
Сидов:  2  [  0 KB/s  ]  
 
 
 
Автор Сообщение

leon030982

[] 

Мистер Мерседес / Mr. Mercedes


Год выпуска: 2018
Страна: США
Жанр: Триллер, детектив
Продолжительность: 1x~ 00:50:00
Перевод: Профессиональный (многоголосый закадровый) *Студия (GostFilm)*
Субтитры: английские

Режиссёр: Джек Бендер

В ролях: Брендан Глисон, Джаррель Джером, Гарри Тредэвэй, Келли Линч, Эд Андерсон, Грант Лэйн и др.

Описание: Билл Ходжес в молодые годы был по-настоящему крытым полицейским, который всегда являлся примером для подражания. Однако до сих пор отставной коп не может забыть о той странной серии убийств, которая осталась единственной нераскрытой в карьере главного героя. Возвращение на прежнюю работу утолит его жажду. Однако жажду свою утолить мечтает и Брейди Хартфилд, который до сих пор вспоминает с предвкушением то, как он на машине врезался в толпу людей. Преступник планирует очередное покушение. Самое сложное в работе следователей - понять, кто очередная жертва, ведь погибнуть может кто угодно!



Качество: WEBRip 720p
Формат: MKV
Видео кодек: AVC
Аудио кодек: AC3
Видео: MPEG-4 AVC, ~ 1800 Кбит/с, 1280x720
Аудио: Dolby AC3, 48000Hz, 2 Ch, 192Kbps

Цитата:

Сериал переведен и озвучен Творческим объединением GostFilm
General
Unique ID : 237391150440939590687561130087189694940 (0xB297DF5D40B45B3FDF601CA074D5C9DC)
Complete name : E:\Mr.Mercedes.S02.720p.GostFilm\Mr.Mercedes.S02E01.720p.GostFilm.mkv
Format : Matroska
Format version : Version 4 / Version 2
File size : 821 MiB
Duration : 59 min 58 s
Overall bit rate : 1 913 kb/s
Encoded date : UTC 2018-08-23 23:55:50
Writing application : mkvmerge v22.0.0 ('At The End Of The World') 64-bit
Writing library : libebml v1.3.5 + libmatroska v1.4.8

Video
ID : 1
Format : AVC
Format/Info : Advanced Video Codec
Format profile : High@L3.1
Format settings : CABAC / 5 Ref Frames
Format settings, CABAC : Yes
Format settings, RefFrames : 5 frames
Codec ID : V_MPEG4/ISO/AVC
Duration : 59 min 58 s
Bit rate : 1 683 kb/s
Width : 1 280 pixels
Height : 720 pixels
Display aspect ratio : 16:9
Frame rate mode : Constant
Frame rate : 23.976 (24000/1001) FPS
Color space : YUV
Chroma subsampling : 4:2:0
Bit depth : 8 bits
Scan type : Progressive
Bits/(Pixel*Frame) : 0.076
Stream size : 722 MiB (88%)
Default : Yes
Forced : No
Color range : Limited
Color primaries : BT.709
Transfer characteristics : BT.709
Matrix coefficients : BT.709

Audio
ID : 2
Format : AC-3
Format/Info : Audio Coding 3
Format settings, Endianness : Big
Codec ID : A_AC3
Duration : 59 min 58 s
Bit rate mode : Constant
Bit rate : 192 kb/s
Channel(s) : 2 channels
Channel positions : Front: L R
Sampling rate : 44.1 kHz
Frame rate : 28.711 FPS (1536 SPF)
Bit depth : 16 bits
Compression mode : Lossy
Stream size : 82.4 MiB (10%)
Title : GostFilm
Service kind : Complete Main
Default : Yes
Forced : Yes

Text
ID : 3
Format : UTF-8
Codec ID : S_TEXT/UTF8
Codec ID/Info : UTF-8 Plain Text
Title : SDH
Language : English
Default : No
Forced : No
Внимание! Раздача ведётся путём добавления новых серий; при каждом добавлении создаётся новый торрент. Чтобы начать докачку новой серии, пользователям необходимо сделать следующее:
Остановить скачивание.
Удалить старый торрент у себя из клиента (старые серии удалять не надо).
Скачать новый торрент и запустить его у себя в клиенте вместо старого, при этом указать клиенту путь в старую папку куда и должно происходить скачивание новых серий.

Ваш клиент при этом должен произвести хеширование (проверку) старой папки (если не производит сам - помогите ему сделать это), и будет докачивать только те серии которых у вас ещё нет. Старые серии при этом не удаляются, а продолжают раздаваться!
Eсли вы уже удалили старые серии, то предотвратить повторную закачку старых серий можно, отжав галочку в соответсвующих местах при запуске нового торрента. По возможности, желательно не удалять старые серии как можно дольше чтобы релизёр не столько продолжал раздавать старые серии, а смог сконцентрироваться на новых.



Скачать Мистер.Мерседес.Mr.Mercedes.(Сезон.02.серии.01-04.из.10).(Джек.Бендер).[2018.Триллер.детектив.WEBRip].[720p].[MVO].(GostFilm).torrent без регистрации
Золото ЗОЛОТАЯ РАЗДАЧА! СКАЧАННОЕ НЕ ЗАСЧИТЫВАЕТСЯ! Золото
Дата: Зарегистрирован   [ Тип: внутренний ] Как тут cкачать?
MAGNET ссылка
MAGNET ссылка


Скачать .torrent

20 KB

Статус: проверено DHT
Скачан: торрент - 113 раз, раздача полностью - 0 раз
Размер: 3,78 GB
Оценка:  - (Голосов: 0)
Поблагодарили: 1
Поделиться ссылкой на эту раздачу с друзьями:
В контактеFacebookОдноклассникиTwitterLivejournalМой МирLiveinternet
 

 
Показать сообщения:    


Вы не можете начинать темы
Вы не можете отвечать на сообщения
Вы не можете редактировать свои сообщения
Вы не можете удалять свои сообщения
Вы не можете голосовать в опросах
Вы не можете прикреплять файлы к сообщениям
Вы можете скачивать файлы