Loading...
Error

Скачать Мистер Мерседес / Mr. Mercedes (Сезон 02, серии 01-04 из 10) (Джек Бендер) [2018, Триллер, детектив, WEB-DL] [1080p] [MVO] (SDI Media) торрент без регистрации

Статистика раздачи
Размер:  9,59 GB   |    Скачан:  137 раз
Сидов:  1  [  0 KB/s  ]  
 
 
 
Автор Сообщение

leon030982

[] 

Мистер Мерседес / Mr. Mercedes


Год выпуска: 2018
Страна: США
Жанр: Триллер, детектив
Продолжительность: 1x~ 00:50:00
Перевод: Профессиональный (многоголосый закадровый) *SDI Media по заказу Viasat*
Субтитры: английские

Режиссёр: Джек Бендер

В ролях: Брендан Глисон, Джаррель Джером, Гарри Тредэвэй, Келли Линч, Эд Андерсон, Грант Лэйн и др.

Описание: Билл Ходжес в молодые годы был по-настоящему крытым полицейским, который всегда являлся примером для подражания. Однако до сих пор отставной коп не может забыть о той странной серии убийств, которая осталась единственной нераскрытой в карьере главного героя. Возвращение на прежнюю работу утолит его жажду. Однако жажду свою утолить мечтает и Брейди Хартфилд, который до сих пор вспоминает с предвкушением то, как он на машине врезался в толпу людей. Преступник планирует очередное покушение. Самое сложное в работе следователей - понять, кто очередная жертва, ведь погибнуть может кто угодно!



Качество: WEB-DL 1080p 1080p
Формат: MKV
Видео кодек: AVC
Аудио кодек: AC3
Видео: MPEG-4 AVC, ~ 5800 Кбит/с, 1920x1080, 25.000 fps
Аудио 1: Dolby AC3, 48000Hz, 2 Ch, 192Kbps - SDI
Аудио 2: Dolby AC3, 48000Hz, 6 Ch, 384Kbps - Eng

Цитата:

Khoren

Озвучивание: SDI Media по заказу Viasat
General
Unique ID : 197470578547053038870082237577346455801 (0x948F73358DE81930A3430274878498F9)
Complete name : E:\Mr.Mercedes.S02.1080p.AMZN.WEB-DL.H.264-SDI\Mr.Mercedes.S02E01.Missed.You.1080p.AMZN.WEB-DL.H.264-SDI.mkv
Format : Matroska
Format version : Version 4 / Version 2
File size : 2.60 GiB
Duration : 57 min 31 s
Overall bit rate : 6 475 kb/s
Encoded date : UTC 2018-08-24 09:13:31
Writing application : mkvmerge v18.0.0 ('Apricity') 64-bit
Writing library : libebml v1.3.5 + libmatroska v1.4.8
Cover : Yes
Attachments : cover.mercedes.jpg

Video
ID : 1
Format : AVC
Format/Info : Advanced Video Codec
Format profile : High@L4
Format settings : CABAC / 4 Ref Frames
Format settings, CABAC : Yes
Format settings, RefFrames : 4 frames
Codec ID : V_MPEG4/ISO/AVC
Duration : 57 min 31 s
Bit rate : 5 770 kb/s
Width : 1 920 pixels
Height : 1 080 pixels
Display aspect ratio : 16:9
Frame rate mode : Constant
Frame rate : 25.000 FPS
Color space : YUV
Chroma subsampling : 4:2:0
Bit depth : 8 bits
Scan type : Progressive
Bits/(Pixel*Frame) : 0.111
Stream size : 2.32 GiB (89%)
Language : English
Default : Yes
Forced : No
Color range : Limited
Color primaries : BT.709
Transfer characteristics : BT.709
Matrix coefficients : BT.709

Audio #1
ID : 2
Format : AC-3
Format/Info : Audio Coding 3
Format settings, Endianness : Big
Codec ID : A_AC3
Duration : 57 min 31 s
Bit rate mode : Constant
Bit rate : 192 kb/s
Channel(s) : 2 channels
Channel positions : Front: L R
Sampling rate : 48.0 kHz
Frame rate : 31.250 FPS (1536 SPF)
Bit depth : 16 bits
Compression mode : Lossy
Stream size : 79.0 MiB (3%)
Language : Russian
Service kind : Complete Main
Default : Yes
Forced : No

Audio #2
ID : 3
Format : AC-3
Format/Info : Audio Coding 3
Format settings, Endianness : Big
Codec ID : A_AC3
Duration : 57 min 31 s
Bit rate mode : Constant
Bit rate : 384 kb/s
Channel(s) : 6 channels
Channel positions : Front: L C R, Side: L R, LFE
Sampling rate : 48.0 kHz
Frame rate : 31.250 FPS (1536 SPF)
Bit depth : 16 bits
Compression mode : Lossy
Stream size : 158 MiB (6%)
Language : English
Service kind : Complete Main
Default : No
Forced : No

Text
ID : 4
Format : UTF-8
Codec ID : S_TEXT/UTF8
Codec ID/Info : UTF-8 Plain Text
Language : English
Default : No
Forced : No

Внимание! Раздача ведётся путём добавления новых серий; при каждом добавлении создаётся новый торрент. Чтобы начать докачку новой серии, пользователям необходимо сделать следующее:
Остановить скачивание.
Удалить старый торрент у себя из клиента (старые серии удалять не надо).
Скачать новый торрент и запустить его у себя в клиенте вместо старого, при этом указать клиенту путь в старую папку куда и должно происходить скачивание новых серий.

Ваш клиент при этом должен произвести хеширование (проверку) старой папки (если не производит сам - помогите ему сделать это), и будет докачивать только те серии которых у вас ещё нет. Старые серии при этом не удаляются, а продолжают раздаваться!
Eсли вы уже удалили старые серии, то предотвратить повторную закачку старых серий можно, отжав галочку в соответсвующих местах при запуске нового торрента. По возможности, желательно не удалять старые серии как можно дольше чтобы релизёр не столько продолжал раздавать старые серии, а смог сконцентрироваться на новых.



Скачать Мистер.Мерседес.Mr.Mercedes.(Сезон.02.серии.01-04.из.10).(Джек.Бендер).[2018.Триллер.детектив.WEB-DL].[1080p].[MVO].(SDI.Media).torrent без регистрации
Золото ЗОЛОТАЯ РАЗДАЧА! СКАЧАННОЕ НЕ ЗАСЧИТЫВАЕТСЯ! Золото
Дата: Зарегистрирован   [ Тип: внутренний ] Как тут cкачать?
MAGNET ссылка
MAGNET ссылка


Скачать .torrent

25 KB

Статус: проверено DHT
Скачан: торрент - 137 раз, раздача полностью - 0 раз
Размер: 9,59 GB
Оценка:  - (Голосов: 0)
Поблагодарили: 0
Поделиться ссылкой на эту раздачу с друзьями:
В контактеFacebookОдноклассникиTwitterLivejournalМой МирLiveinternet
 

 
Показать сообщения:    


Вы не можете начинать темы
Вы не можете отвечать на сообщения
Вы не можете редактировать свои сообщения
Вы не можете удалять свои сообщения
Вы не можете голосовать в опросах
Вы не можете прикреплять файлы к сообщениям
Вы можете скачивать файлы