Loading...
Error

Скачать Телохранитель / Bodyguard (Сезон 01, серии 01-03 из 06) (Томас Венсан, Джон Стриклэнд) [2018, триллер, драма, криминал, WEB-DL 1080p] [MVO] (NewStudio) торрент без регистрации

Статистика раздачи
Размер:  3,26 GB   |    Скачан:  88 раз
Сидов:  1  [  0 KB/s  ]  
 
 
 
Автор Сообщение

leon030982

[] 

Телохранитель / Bodyguard

Информация о фильме



Год выпуска: 2018
Жанр: триллер, драма, криминал
Страна: Великобритания
Студия: World Productions
Продолжительность: 1 x ~00:57:00
Перевод: Профессиональный (многоголосый) *NewStudio*

Режиссер: Томас Венсан, Джон Стриклэнд

В ролях: Стюарт Боуман, Том Брук, Клер-Луис Кордуэлл, Винсент Франклин, Николас Гливс, Кили Хоуз, Пиппа Хэйвуд, Стефани Хаям, Ричард Мэдден, Джина МакКи

О фильме:

Дэвид Бадд — ветеран войны и офицер управления безопасности, обеспечивающий сохранность членов королевской семьи и правительства Великобритании. Ему поручена охрана министра внутренних дел Джулии Монтегю. Бадд оказывается в непростом положении — его убеждения кардинально отличаются от взглядов той, кого ему предстоит защищать. Так из телохранителя он может превратиться в главную угрозу.



Раздпча от --

Файл

Кодек: x264 (AVC)
Качество: WEB-DL 1080p
Видео: MPEG-4 AVC, ~ 2200 Кбит/с, 1920x960
Аудио 1: Русский (AC3, 2 ch, 192 Кбит/с)
Аудио 2: Английский (AC3, 2 ch, 224 Кбит/с)
General
Unique ID : 153228339266774749741823666901477714334 (0x7346B466B645E185B9138B074867699E)
Complete name : E:\Телохранитель. Сериал. 2018. NewStudio (WEB-DL 1080p)\Bodyguard.s01e01. Эпизод 1.mkv
Format : Matroska
Format version : Version 4 / Version 2
File size : 1.05 GiB
Duration : 57 min 39 s
Overall bit rate : 2 611 kb/s
Encoded date : UTC 2018-08-31 16:57:40
Writing application : mkvmerge v25.0.0 ('Prog Noir') 64-bit
Writing library : libebml v1.3.6 + libmatroska v1.4.9

Video
ID : 1
Format : AVC
Format/Info : Advanced Video Codec
Format profile : High@L4
Format settings : CABAC / 4 Ref Frames
Format settings, CABAC : Yes
Format settings, RefFrames : 4 frames
Codec ID : V_MPEG4/ISO/AVC
Duration : 57 min 39 s
Bit rate : 2 143 kb/s
Width : 1 920 pixels
Height : 960 pixels
Display aspect ratio : 2.000
Frame rate mode : Constant
Frame rate : 25.000 FPS
Color space : YUV
Chroma subsampling : 4:2:0
Bit depth : 8 bits
Scan type : Progressive
Bits/(Pixel*Frame) : 0.047
Stream size : 884 MiB (82%)
Language : English
Default : Yes
Forced : No
Color range : Limited
Color primaries : BT.709
Transfer characteristics : BT.709
Matrix coefficients : BT.709

Audio #1
ID : 2
Format : AC-3
Format/Info : Audio Coding 3
Format settings, Endianness : Big
Codec ID : A_AC3
Duration : 57 min 39 s
Bit rate mode : Constant
Bit rate : 192 kb/s
Channel(s) : 2 channels
Channel positions : Front: L R
Sampling rate : 48.0 kHz
Frame rate : 31.250 FPS (1536 SPF)
Bit depth : 16 bits
Compression mode : Lossy
Stream size : 79.2 MiB (7%)
Language : Russian
Service kind : Complete Main
Default : Yes
Forced : No

Audio #2
ID : 3
Format : AC-3
Format/Info : Audio Coding 3
Format settings, Endianness : Big
Codec ID : A_AC3
Duration : 57 min 39 s
Bit rate mode : Constant
Bit rate : 224 kb/s
Channel(s) : 2 channels
Channel positions : Front: L R
Sampling rate : 48.0 kHz
Frame rate : 31.250 FPS (1536 SPF)
Bit depth : 16 bits
Compression mode : Lossy
Stream size : 92.4 MiB (9%)
Language : English
Service kind : Complete Main
Default : No
Forced : No
Внимание! Раздача ведётся путём добавления новых серий; при каждом добавлении создаётся новый торрент. Чтобы начать докачку новой серии, пользователям необходимо сделать следующее:
Остановить скачивание.
Удалить старый торрент у себя из клиента (старые серии удалять не надо).
Скачать новый торрент и запустить его у себя в клиенте вместо старого, при этом указать клиенту путь в старую папку куда и должно происходить скачивание новых серий.

Ваш клиент при этом должен произвести хеширование (проверку) старой папки (если не производит сам - помогите ему сделать это), и будет докачивать только те серии которых у вас ещё нет. Старые серии при этом не удаляются, а продолжают раздаваться!
Eсли вы уже удалили старые серии, то предотвратить повторную закачку старых серий можно, отжав галочку в соответсвующих местах при запуске нового торрента. По возможности, желательно не удалять старые серии как можно дольше чтобы релизёр не столько продолжал раздавать старые серии, а смог сконцентрироваться на новых.



Скачать Телохранитель.Bodyguard.(Сезон.01.серии.01-03.из.06).(Томас.Венсан.Джон.Стриклэнд).[2018.триллер.драма.криминал.WEB-DL.1080p].[MVO].(NewStudio).torrent без регистрации
Золото ЗОЛОТАЯ РАЗДАЧА! СКАЧАННОЕ НЕ ЗАСЧИТЫВАЕТСЯ! Золото
Дата: Зарегистрирован   [ Тип: внутренний ] Как тут cкачать?
MAGNET ссылка
MAGNET ссылка


Скачать .torrent

17 KB

Статус: проверено DHT
Скачан: торрент - 88 раз, раздача полностью - 0 раз
Размер: 3,26 GB
Оценка:  - (Голосов: 0)
Поблагодарили: 1
Поделиться ссылкой на эту раздачу с друзьями:
В контактеFacebookОдноклассникиTwitterLivejournalМой МирLiveinternet
 

 
Показать сообщения:    


Вы не можете начинать темы
Вы не можете отвечать на сообщения
Вы не можете редактировать свои сообщения
Вы не можете удалять свои сообщения
Вы не можете голосовать в опросах
Вы не можете прикреплять файлы к сообщениям
Вы можете скачивать файлы