Loading...
Error

Скачать Тринадцатый апостол - Избранный / Il tredicesimo apostolo - Il prescelto (01х12 из 12) (Алексис Свит) [2012, фантастика, мистика, драма, SATRip] [MVO (ViruseProject)] торрент без регистрации

 
Статистика раздачи
Размер:  6,74 GB   |    Скачан:  250 раз
Сидов:  1  [  0 KB/s  ]  
 
Автор Сообщение

МихаНЕзатор

[] 

Год выпуска: 2012
Страна: Италия
Жанр: фантастика, мистика, драма
Продолжительность: 00:51:03
Перевод: Любительский (многоголосый закадровый) - 9 голосов - ViruseProject
Русские субтитры: есть
Автор перевода: Enlighter, Sensei MFI
Субтитры: русские

Режиссёр: Alexis Sweet / Алексис Свит

В ролях: Claudio Gio? (Padre Gabriel Antinori), Claudia Pandolfi (Claudia Munari), Luigi Diberti (Monsignor Demetrio Antinori), Chiara Nicola (Giulia, studentessa), Glen Blackhall (Pietro Lima, studente)

Описание: Габриэль, молодой священник и профессор теологии, вместе с психологом Клаудией исследуют паранормальные явлeния.

Качество: SATRip
Формат: AVI
Видео кодек: XviD
Аудио кодек: MP3
Видео: 624x352 (1.77:1), 25 fps, XviD build 46 ~1230 kbps avg, 0.22 bit/pixel
Аудио: 48 kHz, MPEG Layer 3, 2 ch, ~192.00 kbps avg
Аудио 2: 48 kHz, MPEG Layer 3, 2 ch, ~128.00 kbps avg


Смотреть семпл озвучки на rutube

12.03.2013 г. торент обновлён, добавлена 4-12 серия!

Релиз:

Эпизод 1 - Gemelli
Эпизод 2 - Anatema
Эпизод 3 - Presagi di Morte
Эпизод 4 - Un Altra Vita
Эпизод 5 - Rachele
Эпизод 6 - La Macchia di Lucifero
Эпизод 7 - Dalle stelle
Эпизод 8 - La Scelta
Эпизод 9 - Il Villaggio
Эпизод 10 - Fantasmi
Эпизод 11 - Il Circolo di Plutarco
Эпизод 12 - La Profezia

Озвучка:
*Агент Смит (Александр Харченко )

*48 kbps (Сергей Павловкий )

*viruse (Виталий Емельянов)

*IgVin (Игорь Головин)

*Pro-Snip (Дмитрий Иванов )

*Ёлка (Елена Емельянова)

*Полина_Aldani_Касаткина (Полина Касаткина)

*Solncekleshka (Татьяна Романовская)

Перевод:
Enlighter, Sensei MFI

Монтаж, сведение звука, постер: viruse

D:ОЗВУЧКАГОТОВОЕ13.Apostol_ViruseProject13.Apostol_S01E01_ViruseProject.avi
General
Complete name : D:ОЗВУЧКАГОТОВОЕ13.Apostol_ViruseProject13.Apostol_S01E01_ViruseProject.avi
Format : AVI
Format/Info : Audio Video Interleave
File size : 572 MiB
Duration : 51mn 3s
Overall bit rate : 1 566 Kbps
Writing application : VirtualDubMod 1.5.10.2 (build 2540/release)
Writing library : VirtualDubMod build 2540/release
Video #0
ID : 0
Format : MPEG-4 Visual
Format profile : Advanced Simple@L5
Format settings, BVOP : 2
Format settings, QPel : No
Format settings, GMC : No warppoints
Format settings, Matrix : Custom
Codec ID : XVID
Codec ID/Hint : XviD
Duration : 51mn 3s
Bit rate : 1 231 Kbps
Width : 624 pixels
Height : 352 pixels
Display aspect ratio : 16:9
Frame rate : 25.000 fps
Color space : YUV
Chroma subsampling : 4:2:0
Bit depth : 8 bits
Scan type : Progressive
Compression mode : Lossy
Bits/(Pixel*Frame) : 0.224
Stream size : 450 MiB (79%)
Writing library : XviD 1.1.2 (UTC 2006-11-01)
Audio #1
ID : 1
Format : MPEG Audio
Format version : Version 1
Format profile : Layer 3
Codec ID : 55
Codec ID/Hint : MP3
Duration : 51mn 3s
Bit rate mode : Constant
Bit rate : 192 Kbps
Channel(s) : 2 channels
Sampling rate : 48.0 KHz
Compression mode : Lossy
Stream size : 70.1 MiB (12%)
Alignment : Aligned on interleaves
Interleave, duration : 40 ms (1.00 video frame)
Interleave, preload duration : 504 ms
Audio #2
ID : 2
Format : MPEG Audio
Format version : Version 1
Format profile : Layer 3
Mode : Joint stereo
Mode extension : MS Stereo
Codec ID : 55
Codec ID/Hint : MP3
Duration : 51mn 3s
Bit rate mode : Constant
Bit rate : 128 Kbps
Channel(s) : 2 channels
Sampling rate : 48.0 KHz
Compression mode : Lossy
Stream size : 46.7 MiB (8%)
Alignment : Aligned on interleaves
Interleave, duration : 40 ms (1.00 video frame)
Interleave, preload duration : 504 ms



Скачать Тринадцатый.апостол.-.Избранный.Il.tredicesimo.apostolo.-.Il.prescelto.(01х12.из.12).(Алексис.Свит).[2012.фантастика.мистика.драма.SATRip].[MVO.(ViruseProject)].torrent без регистрации
Золото ЗОЛОТАЯ РАЗДАЧА! СКАЧАННОЕ НЕ ЗАСЧИТЫВАЕТСЯ! Золото
Дата: Зарегистрирован   [ Тип: внутренний ] Как тут cкачать?
MAGNET ссылка
MAGNET ссылка


Скачать .torrent

19 KB

Статус: проверено DHT
Скачан: торрент - 250 раз, раздача полностью - 169 раз
Размер: 6,74 GB
Оценка:  4,5 (Голосов: 4)
Поблагодарили: 14
Поделиться ссылкой на эту раздачу с друзьями:
В контактеFacebookОдноклассникиTwitterLivejournalМой МирLiveinternet
 

 

МихаНЕзатор

[] 

Раздача обновлена
 
Показать сообщения:    


Вы не можете начинать темы
Вы не можете отвечать на сообщения
Вы не можете редактировать свои сообщения
Вы не можете удалять свои сообщения
Вы не можете голосовать в опросах
Вы не можете прикреплять файлы к сообщениям
Вы можете скачивать файлы