Loading...
Error

Скачать Любовь и вымогательство / Love Lies Bleeding (Кейт Сэмплз) [2008, Боевик, триллер, HDTVRip] [MVO] торрент без регистрации

 
Статистика раздачи
Размер:  1,74 GB   |    Скачан:  115 раз
Сидов:  1  [  0 KB/s  ]  
 
Автор Сообщение

Marsianka

[] 



Любовь и вымогательство / Love Lies Bleeding [2008, США, Боевик, триллер, HDTVRip]

Страна: США
Жанр: Боевик, триллер
Год выпуска: 2008
Продолжительность: 01:29:52.520 (269626 frames)

Перевод: Профессиональный (многоголосый закадровый)
Cубтитры: нет
Оригинальная аудиодорожка:английский - отдельно

Режиссер: Кейт Сэмплз / Keith Samples

В ролях: Брайан Джерати, Кристиан Слейтер, Дженна Девэн, Джералд Бродин, Джереми Бернелл

Описание: Большие деньги - большие проблемы...
Видимо об этом забыли герои фильма Дьюк и Эмбер - пробивная парочка, случайно напоровшаяся на спортивную сумку до отказа набитую деньгами. Обчистив тайник, они спешно скрываются. Воодушевленные получением средств для реализации своих планов новоиспеченные молодожены придаются романтике дороги.
Внезапно, их эйфория превращается в ночной кошмар, и оборачивается отчаянной борьбой за свою жизнь. Продажный агент наркоконтроля Поллен, лишившийся наживы, буквально впадает в ярость и решает вернуть любой ценой "по праву принадлежавшее ему". Он начинает жестокую погоню non-stop. Скрывающиеся и растерянные молодые люди вызывают подозрение детектива, который призван выяснить, что к чему, пока не стало слишком поздно...




СЭМПЛ

Автор рипа : сhopper887

Качество видео: HDTVRip(Исх. HDTV 1080)
Формат видео: AVI

Видео: 720x304 (2.37:1), 50 fps, XviD build 50 ~1857 kbps avg, 0.17 bit/pixel
Аудио: 48 kHz, AC3 Dolby Digital, 3/2 (L,C,R,l,r) + LFE ch, ~448 kbps

General
Complete name : F:Love.Lies.Bleeding.chopper887.avi
Format : AVI
Format/Info : Audio Video Interleave
File size : 1.46 GiB
Duration : 1h 29mn
Overall bit rate : 2 324 Kbps
Writing application : VirtualDubMod 1.5.10.2 (build 2540/release)
Writing library : VirtualDubMod build 2540/release

Video
ID : 0
Format : MPEG-4 Visual
Format profile : Advanced Simple@L5
Format settings, BVOP : Yes
Format settings, QPel : No
Format settings, GMC : No warppoints
Format settings, Matrix : Custom
Codec ID : XVID
Codec ID/Hint : XviD
Duration : 1h 29mn
Bit rate : 1 857 Kbps
Width : 720 pixels
Height : 304 pixels
Display aspect ratio : 2.35:1
Frame rate : 50.000 fps
Color space : YUV
Chroma subsampling : 4:2:0
Bit depth : 8 bits
Scan type : Progressive
Bits/(Pixel*Frame) : 0.170
Stream size : 1.17 GiB (80%)
Writing library : XviD 1.2.1 (UTC 2008-12-04)

Audio
ID : 1
Format : AC-3
Format/Info : Audio Coding 3
Mode extension : CM (complete main)
Codec ID : 2000
Duration : 1h 29mn
Bit rate mode : Constant
Bit rate : 448 Kbps
Channel(s) : 6 channels
Channel positions : Front: L C R, Side: L R, LFE
Sampling rate : 48.0 KHz
Stream size : 288 MiB (19%)
Alignment : Split accross interleaves
Interleave, duration : 20 ms (1.00 video frame)
Interleave, preload duration : 500 ms



Скачать Любовь.и.вымогательство.Love.Lies.Bleeding.(Кейт.Сэмплз).[2008.Боевик.триллер.HDTVRip].[MVO].torrent без регистрации
Золото ЗОЛОТАЯ РАЗДАЧА! СКАЧАННОЕ НЕ ЗАСЧИТЫВАЕТСЯ! Золото
Дата: Зарегистрирован   [ Тип: внутренний ] Как тут cкачать?
MAGNET ссылка
MAGNET ссылка


Скачать .torrent

18 KB

Статус: проверено DHT
Скачан: торрент - 115 раз, раздача полностью - 5 раз
Размер: 1,74 GB
Оценка:  - (Голосов: 0)
Поблагодарили: 1
Поделиться ссылкой на эту раздачу с друзьями:
В контактеFacebookОдноклассникиTwitterLivejournalМой МирLiveinternet
 

 
Показать сообщения:    


Вы не можете начинать темы
Вы не можете отвечать на сообщения
Вы не можете редактировать свои сообщения
Вы не можете удалять свои сообщения
Вы не можете голосовать в опросах
Вы не можете прикреплять файлы к сообщениям
Вы можете скачивать файлы