Loading...
Error

Скачать Охранник / The Sentinel (Кларк Джонсон / Clark Johnson) [2006, боевик, детектив, триллер, BDRip-AVC] торрент без регистрации

 
Статистика раздачи
Размер:  1,79 GB   |    Скачан:  161 раз
Сидов:  1  [  0 KB/s  ]  
 
Автор Сообщение

МихаНЕзатор

[] 



Охранник / The Sentinel (2006) BDRip-AVC

Страна: США
Жанр: Боевик, детектив, триллер
Год выпуска: 2006
Продолжительность: 01:48:00

Перевод: Профессиональный (дублированный)
Оригинальная дорожка : английский - отдельно
Cубтитры: русские, английские
Режиссер: Кларк Джонсон / Clark Johnson

В ролях: Майкл Дуглас, Кифер Сазерленд, Ким Бэйсингер, Ева Лонгориа, Мартин Донован, Дэвид Раше

Описание: Специальный агент Пит Гаррисон убежден, что в Белом Доме завелся предатель. Его теория находит подтверждение после убийства одного из охранников президента. Однако подозрение падает на самого Гаррисона. Его отстраняют от дел, и ко всему прочему вменяют в вину связь с первой леди. Жизнь президентской семьи в опасности. Пытаясь найти предателя, Гаррисон вынужден воевать с системой, которую он сам создал...

Доп. информация:

Качество видео: BDRip-AVC(Исх. Blu-ray)
Формат видео: AVI

Видео: 1024x432 (2.35:1), 23.976 fps, x264, 1543 kbps
Аудио: 48 kHz, AC3 Dolby Digital, 3/2 (L,C,R,l,r) + LFE ch, ~384 kbps RUS
Аудио: 48 kHz, AC3 Dolby Digital, 3/2 (L,C,R,l,r) + LFE ch, ~448 kbps ENG - отдельно
Формат субтитров: softsub (SRT)

General
UniqueID : 204770463064856770644024242895713112058 (0x9A0D5B4DB1A35A30A52C932BD01E8FFA)
Complete name : D:Ohrannik.chopper887-AVCOhrannik.chopper887.mkv
Format : Matroska
File size : 1.45 GiB
Duration : 1h 48mn
Overall bit rate : 1 927 Kbps
Movie name : Ohrannik.chopper887
Encoded date : UTC 2011-01-16 10:39:33
Writing application : mkvmerge v4.4.0 ('Die Wiederkehr') сборка от Nov 7 2010 22:17:07
Writing library : libebml v1.0.0 + libmatroska v1.0.0

Video
ID : 1
Format : AVC
Format/Info : Advanced Video Codec
Format profile : High@L4.1
Format settings, CABAC : Yes
Format settings, ReFrames : 10 frames
Codec ID : V_MPEG4/ISO/AVC
Duration : 1h 48mn
Bit rate : 1 543 Kbps
Width : 1 024 pixels
Height : 432 pixels
Display aspect ratio : 2.35:1
Frame rate : 23.976 fps
Color space : YUV
Chroma subsampling : 4:2:0
Bit depth : 8 bits
Scan type : Progressive
Bits/(Pixel*Frame) : 0.145
Stream size : 1.13 GiB (78%)
Title : Ohrannik.chopper887
Writing library : x264 core 110 r1804 e89c4cf
Encoding settings : cabac=1 / ref=10 / deblock=1:-2:-1 / analyse=0x3:0x133 / me=umh / subme=9 / psy=1 / psy_rd=1.00:0.10 / mixed_ref=1 / me_range=32 / chroma_me=1 / trellis=2 / 8x8dct=1 / cqm=0 / deadzone=21,11 / fast_pskip=0 / chroma_qp_offset=-3 / threads=3 / sliced_threads=0 / nr=0 / decimate=1 / interlaced=0 / constrained_intra=0 / bframes=8 / b_pyramid=2 / b_adapt=2 / b_bias=0 / direct=3 / weightb=1 / open_gop=0 / weightp=2 / keyint=250 / keyint_min=23 / scenecut=40 / intra_refresh=0 / rc_lookahead=80 / rc=2pass / mbtree=1 / bitrate=1543 / ratetol=1.0 / qcomp=0.60 / qpmin=0 / qpmax=51 / qpstep=4 / cplxblur=20.0 / qblur=0.5 / ip_ratio=1.40 / aq=1:1.00
Language : English

Audio
ID : 2
Format : AC-3
Format/Info : Audio Coding 3
Mode extension : CM (complete main)
Codec ID : A_AC3
Duration : 1h 48mn
Bit rate mode : Constant
Bit rate : 384 Kbps
Channel(s) : 6 channels
Channel positions : Front: L C R, Side: L R, LFE
Sampling rate : 48.0 KHz
Bit depth : 16 bits
Compression mode : Lossy
Stream size : 297 MiB (20%)
Title : Дубляж

Text #1
ID : 3
Format : UTF-8
Codec ID : S_TEXT/UTF8
Codec ID/Info : UTF-8 Plain Text
Title : Русские

Text #2
ID : 4
Format : UTF-8
Codec ID : S_TEXT/UTF8
Codec ID/Info : UTF-8 Plain Text
Title : Английские


ПОЖАЛУЙСТА НЕ УХОДИТЕ С РАЗДАЧИ!



Скачать Охранник.The.Sentinel.(Кларк.Джонсон.Clark.Johnson).[2006.боевик.детектив.триллер.BDRip-AVC].torrent без регистрации
Золото ЗОЛОТАЯ РАЗДАЧА! СКАЧАННОЕ НЕ ЗАСЧИТЫВАЕТСЯ! Золото
Дата: Зарегистрирован   [ Тип: внутренний ] Как тут cкачать?
MAGNET ссылка
MAGNET ссылка


Скачать .torrent

19 KB

Статус: проверено DHT
Скачан: торрент - 161 раз, раздача полностью - 32 раз
Размер: 1,79 GB
Оценка:  - (Голосов: 0)
Поблагодарили: 0
Поделиться ссылкой на эту раздачу с друзьями:
В контактеFacebookОдноклассникиTwitterLivejournalМой МирLiveinternet
 

 
Показать сообщения:    


Вы не можете начинать темы
Вы не можете отвечать на сообщения
Вы не можете редактировать свои сообщения
Вы не можете удалять свои сообщения
Вы не можете голосовать в опросах
Вы не можете прикреплять файлы к сообщениям
Вы можете скачивать файлы