Loading...
Error

Скачать Великолепный век / Muhtesem Yüzyil (01-02x01-62) (Дурул Тайлан, Ягмур Тайлан) [2011, драма, мелодрама, военный, биография, история, WEBRip-AVC] [Dub (ТК Домашний)] торрент без регистрации

 
Статистика раздачи
Размер:  56,26 GB   |    Скачан:  1462 раза
Сидов:  1  [  0 KB/s  ]  
 
Автор Сообщение

МихаНЕзатор

[] 

Информация о фильме
Название: Великолепный век
Оригинальное название: Muhtesem Y¬zyil
Год выхода: 2011
Жанр: драма, мелодрама, военный, биография, история
Режиссер: Дурул Тайлан / Durul Taylan, Ягмур Тайлан / Yagmur Taylan
В ролях: Небахат Чехре /Nebahat wehre/, Окан Ялабик /Okan Yalabik/, Сельма Эргеч /Selma Erge—/, Халит Эргенч /Halit Ergen—/, Филиз Ахмет /Filiz Ahmet/

О фильме: Сюжет основан на реальных событиях, произошедших во времена правления султана Сулеймана I, и расказывает о периоде жизни девушки Роксоланы, взятой в плен турками и названной Хюррем. Позже она стала первой официальной женой Сулеймана, но для этого ей пришлось пройти сложный путь



Страна: Турция
Продолжительность: ~ 100 минут серия
Перевод: Профессиональный (полное дублирование) [ТК Домашний]

Файл
Кодек: AVC / AAC
Качество: WEBRip-AVC
Видео: AVC, 704x396 (16:9), 25.000 fps, 1 200 Kbps (0.172 bit/pixel)
Звук: AAC LC, 44.1 KHz, 2 ch, 96.0 Kbps, VBR

19.11.2012 г. торент обновлён, добавлена 61-62 серия!
General
Complete name : Е:28.mp4
Format : MPEG-4
Format profile : Base Media
Codec ID : isom
File size : 979 MiB
Duration : 1h 45mn
Overall bit rate mode : Variable
Overall bit rate : 1 302 Kbps
Writing application : Lavf52.81.0

Video
ID : 1
Format : AVC
Format/Info : Advanced Video Codec
Format profile : High@L3.0
Format settings, CABAC : Yes
Format settings, ReFrames : 4 frames
Codec ID : avc1
Codec ID/Info : Advanced Video Coding
Duration : 1h 45mn
Bit rate : 1 200 Kbps
Width : 704 pixels
Height : 396 pixels
Display aspect ratio : 16:9
Frame rate mode : Constant
Frame rate : 25.000 fps
Color space : YUV
Chroma subsampling : 4:2:0
Bit depth : 8 bits
Scan type : Progressive
Bits/(Pixel*Frame) : 0.172
Stream size : 902 MiB (92%)
Writing library : x264 core 108
Encoding settings : cabac=1 / ref=3 / deblock=1:0:0 / analyse=0x3:0x113 / me=hex / subme=7 / psy=1 / psy_rd=1.00:0.00 / mixed_ref=1 / me_range=16 / chroma_me=1 / trellis=1 / 8x8dct=1 / cqm=0 / deadzone=21,11 / fast_pskip=1 / chroma_qp_offset=-2 / threads=4 / sliced_threads=0 / nr=0 / decimate=1 / interlaced=0 / constrained_intra=0 / bframes=3 / b_pyramid=2 / b_adapt=1 / b_bias=0 / direct=1 / weightb=1 / open_gop=0 / weightp=2 / keyint=100 / keyint_min=50 / scenecut=40 / intra_refresh=0 / rc_lookahead=30 / rc=2pass / mbtree=1 / bitrate=1200 / ratetol=1.0 / qcomp=0.60 / qpmin=10 / qpmax=51 / qpstep=4 / cplxblur=20.0 / qblur=0.5 / ip_ratio=1.41 / aq=1:1.00

Audio
ID : 2
Format : AAC
Format/Info : Advanced Audio Codec
Format profile : LC
Codec ID : 40
Duration : 1h 45mn
Bit rate mode : Variable
Bit rate : 96.0 Kbps
Channel(s) : 2 channels
Channel positions : Front: L R
Sampling rate : 44.1 KHz
Compression mode : Lossy
Delay relative to video : -2ms
Stream size : 72.2 MiB (7%)



Скачать Великолепный.век.Muhtesem.Yüzyil.(01-02x01-62).(Дурул.Тайлан.Ягмур.Тайлан).[2011.драма.мелодрама.военный.биография.история.WEBRip-AVC].[Dub.(ТК.Домашний)].torrent без регистрации
Золото ЗОЛОТАЯ РАЗДАЧА! СКАЧАННОЕ НЕ ЗАСЧИТЫВАЕТСЯ! Золото
Дата: Зарегистрирован   [ Тип: внутренний ] Как тут cкачать?
MAGNET ссылка
MAGNET ссылка


Скачать .torrent

144 KB

Статус: проверено DHT
Скачан: торрент - 1462 раз, раздача полностью - 404 раз
Размер: 56,26 GB
Оценка:  5 (Голосов: 4)
Поблагодарили: 15
Поделиться ссылкой на эту раздачу с друзьями:
В контактеFacebookОдноклассникиTwitterLivejournalМой МирLiveinternet
 

 

ZhulickD

[] 

Качаю с 25 серии ждал перевод домашнего
Спасибо
 

Velikidmitri

[] 

av http://goldenshara.net/viewtopic.php?t=163460&spmode=full# av
 
Показать сообщения:    


Вы не можете начинать темы
Вы не можете отвечать на сообщения
Вы не можете редактировать свои сообщения
Вы не можете удалять свои сообщения
Вы не можете голосовать в опросах
Вы не можете прикреплять файлы к сообщениям
Вы можете скачивать файлы