Loading...
Error

Скачать Убийство / The Killing (Сезон 2 полный) (Patty Jenkins) [2012, детектив, драма, WEB-DLRip] [LostFilm] торрент без регистрации

 
Статистика раздачи
Размер:  4,41 GB   |    Скачан:  205 раз
Сидов:  1  [  0 KB/s  ]  
 
Автор Сообщение

leon030982

[] 

Убийство / The Killing


Год выпуска: 2012
Страна: США

Жанр: детектив, драма
Продолжительность: ~ 00:45:32
Перевод: Профессиональный многоголосый закадровый /LostFilm/
Субтитры: нет
Режиссёр: Patty Jenkins
В ролях: Mireille Enos, Joel Kinnaman, Michelle Forbes, Eric Ladin, Brendan Sexton III, Brandon Jay McLaren, Seth Isaac Johnson, Bill Campbell и др.
Описание: Сериал рассказывает об одном убийстве с трех точек зрения – детективов, приставленных к этому делу, семьи погибшей и подозреваемых. Сюжет также затрагивает местных политиков и их связь с этим делом. Постепенно становится ясно, что здесь нет случайностей, у каждого свой секрет. И хотя персонажи думают, что они продолжают жить дальше, их прошлое еще не оставило их в покое.
Сериал снят по мотивам романа Нельсона Джонсона.

Качество: WEB-DLRip
Формат: AVI
Видео кодек: XviD
Аудио кодек: MP3
Видео: MPEG4, XviD, 720x400 (16/9), 23.976 fps, 872 Kbps (0.126 bit/pixel)
Аудио: Русский, MP3, 48.0 KHz, 2 ch, 128 Kbps, CBR



| Сэмпл | IMDb | КиноПоиск


General
Complete name : I:\ЗАКАЧКИ\Убийство (LostFilm)\The.Killing.S02E01.rus.LostFilm.TV.avi
Format : AVI
Format/Info : Audio Video Interleave
File size : 315 MiB
Duration : 43mn 32s
Overall bit rate : 1 012 Kbps
Writing application : Nandub v1.0rc2
Writing library : Nandub build 1853/release
Video
ID : 0
Format : MPEG-4 Visual
Format profile : Simple@L3
Format settings, BVOP : No
Format settings, QPel : No
Format settings, GMC : No warppoints
Format settings, Matrix : Default (H.263)
Codec ID : XVID
Codec ID/Hint : XviD
Duration : 43mn 32s
Bit rate : 872 Kbps
Width : 720 pixels
Height : 400 pixels
Display aspect ratio : 16:9
Frame rate : 23.976 fps
Color space : YUV
Chroma subsampling : 4:2:0
Bit depth : 8 bits
Scan type : Progressive
Compression mode : Lossy
Bits/(Pixel*Frame) : 0.126
Stream size : 271 MiB (86%)
Writing library : XviD 1.2.1 (UTC 2008-12-04)
Audio
ID : 1
Format : MPEG Audio
Format version : Version 1
Format profile : Layer 3
Mode : Joint stereo
Mode extension : MS Stereo
Codec ID : 55
Codec ID/Hint : MP3
Duration : 43mn 32s
Bit rate mode : Constant
Bit rate : 128 Kbps
Channel(s) : 2 channels
Sampling rate : 48.0 KHz
Compression mode : Lossy
Stream size : 39.9 MiB (13%)
Alignment : Aligned on interleaves
Interleave, duration : 24 ms (0.58 video frame)
Interleave, preload duration : 480 ms

СЕЗОН ЗАВЕРШЕН



Скачать Убийство.The.Killing.(Сезон.2.полный).(Patty.Jenkins).[2012.детектив.драма.WEB-DLRip].[LostFilm].torrent без регистрации
Золото ЗОЛОТАЯ РАЗДАЧА! СКАЧАННОЕ НЕ ЗАСЧИТЫВАЕТСЯ! Золото
Дата: Зарегистрирован   [ Тип: внутренний ] Как тут cкачать?
MAGNET ссылка
MAGNET ссылка


Скачать .torrent

23 KB

Статус: проверено DHT
Скачан: торрент - 205 раз, раздача полностью - 221 раз
Размер: 4,41 GB
Оценка:  5 (Голосов: 1)
Поблагодарили: 3
Поделиться ссылкой на эту раздачу с друзьями:
В контактеFacebookОдноклассникиTwitterLivejournalМой МирLiveinternet
 

 

edalex70

[] 

Шикарный сериал, даже сам не ожидал
 

leon030982

[] 

edalex70 писал(а):

Шикарный сериал, даже сам не ожидал
довольно неплохой,мне тоже понравился ab
 
Показать сообщения:    


Вы не можете начинать темы
Вы не можете отвечать на сообщения
Вы не можете редактировать свои сообщения
Вы не можете удалять свои сообщения
Вы не можете голосовать в опросах
Вы не можете прикреплять файлы к сообщениям
Вы можете скачивать файлы