Loading...
Error

Скачать Общее дело / Common Law (Сезон 1 полный) (Джон Беринг) [2012, комедия, WEB-DLRip] [DVO] [NewStudio] торрент без регистрации

 
Статистика раздачи
Размер:  6,69 GB   |    Скачан:  165 раз
Сидов:  1  [  0 KB/s  ]  
 
Автор Сообщение

leon030982

[] 


Общее дело / Common Law
Сезон 1, Серии 01-12 (12)

Год выпуска: 2012
Страна: США
Жанр: Комедия
Продолжительность: 01:08:01
Перевод: профессиональный двухголосый закадровый -
Режиссер: Джон Беринг
В ролях: Майкл Или, Уоррен Коул, Джек МакГи, Соня Уолгер, Лайл Брокато
Описание: Проект рассказывает о двух копах — Уэсе Митчелле и Трэвисе Марксе — для которых проблемой являются они сами. Будучи напарниками они были командой мечты департамента Лос-Анджелеса. Сейчас Уэс и Трэвис не могут терпеть друг друга. Чтобы оживить ослабевающие профессиональные отношения, капитан отправляет их на курс терапии для пар. Однако зачастую залог хороших отношений не в любви к одним и тем же вещам — вы просто должны ненавидеть одно и тоже.



Качество: WEB-DLRip
Формат: AVI
Видео кодек: XviD
Аудио кодек: MP3
Видео: 1371 kb/s, 720x400, 23.976 fps, 0.199 bit/pixel
Аудио #1: MP3 48000Hz 2 ch 128Kbps
Аудио #2: MP3 48000Hz 2 ch 128Kbps
Над релизом работали:
Озвучка: Константин Погодаев, Татьяна Манетина
Перевод: Анна PurEnergy Долгина
Редактор: GRAFT, Jeketeur
Подготовка видео::Koss
Работа со звуком: Koss
|||| Sample
Pilot
General
Complete name : E:\Videos\common.law.s01.webdl_NewStudio.TV\common.law.s01e01.webdl_NewStudio.TV.avi
Format : AVI
Format/Info : Audio Video Interleave
File size : 802 MiB
Duration : 1h 8mn
Overall bit rate mode : Variable
Overall bit rate : 1 647 Kbps
Writing application : VirtualDubMod 1.5.10.2 (build 2540/release)
Writing library : VirtualDubMod build 2540/release
Video
ID : 0
Format : MPEG-4 Visual
Format profile : Advanced Simple@L5
Format settings, BVOP : 2
Format settings, QPel : No
Format settings, GMC : No warppoints
Format settings, Matrix : Default (MPEG)
Codec ID : XVID
Codec ID/Hint : XviD
Duration : 1h 8mn
Bit rate : 1 373 Kbps
Width : 720 pixels
Height : 400 pixels
Display aspect ratio : 16:9
Frame rate : 23.976 fps
Color space : YUV
Chroma subsampling : 4:2:0
Bit depth : 8 bits
Scan type : Progressive
Compression mode : Lossy
Bits/(Pixel*Frame) : 0.199
Stream size : 668 MiB (83%)
Writing library : XviD 64
Audio #1
ID : 1
Format : MPEG Audio
Format version : Version 1
Format profile : Layer 3
Mode : Joint stereo
Mode extension : MS Stereo
Codec ID : 55
Codec ID/Hint : MP3
Duration : 1h 8mn
Bit rate mode : Constant
Bit rate : 128 Kbps
Channel(s) : 2 channels
Sampling rate : 48.0 KHz
Compression mode : Lossy
Stream size : 62.3 MiB (8%)
Alignment : Aligned on interleaves
Interleave, duration : 42 ms (1.00 video frame)
Interleave, preload duration : 504 ms
Audio #2
ID : 2
Format : MPEG Audio
Format version : Version 1
Format profile : Layer 3
Mode : Joint stereo
Mode extension : MS Stereo
Codec ID : 55
Codec ID/Hint : MP3
Duration : 1h 8mn
Bit rate mode : Variable
Bit rate : 128 Kbps
Channel(s) : 2 channels
Sampling rate : 48.0 KHz
Compression mode : Lossy
Stream size : 62.7 MiB (8%)
Alignment : Aligned on interleaves
Interleave, duration : 24 ms (0.58 video frame)
Interleave, preload duration : 503 ms
Writing library : LAME3.90.
Encoding settings : -m j -V 4 -q 2 -lowpass 17.6 --abr 128
Раздача ведётся путём добавления новых серий; при каждом добавлении создаётся новый торрент. Чтобы начать докачку новой серии, пользователям необходимо сделать следующее:
(1) остановить скачивание,
(2) удалить старый торрент у себя из клиента (старые серии удалять не надо),
(3) скачать новый торрент и запустить его у себя в клиенте вместо старого, при этом указать клиенту путь в старую папку куда и должно происходить скачивание новых серий.
Ваш клиент при этом должен произвести хеширование (проверку) старой папки (если не производит сам - помогите ему сделать это), и будет докачивать только те серии которых у вас ещё нет. Старые серии при этом не удаляются, а продолжают раздаваться!
Eсли вы уже удалили старые серии, то предотвратить повторную закачку старых серий можно, отжав галочку в соответствующих местах при запуске нового торрента. По возможности, желательно не удалять старые серии как можно дольше чтобы релизёр не столько продолжал раздавать старые серии, а смог сконцентрироваться на новых.


ВНИМАНИЕ!!!Добавлена финальная 12-я серия 27.12.12



Скачать Общее.дело.Common.Law.(Сезон.1.полный).(Джон.Беринг).[2012.комедия.WEB-DLRip].[DVO].[NewStudio].torrent без регистрации
Золото ЗОЛОТАЯ РАЗДАЧА! СКАЧАННОЕ НЕ ЗАСЧИТЫВАЕТСЯ! Золото
Дата: Зарегистрирован   [ Тип: внутренний ] Как тут cкачать?
MAGNET ссылка
MAGNET ссылка


Скачать .torrent

35 KB

Статус: проверено DHT
Скачан: торрент - 165 раз, раздача полностью - 5 раз
Размер: 6,69 GB
Оценка:  5 (Голосов: 1)
Поблагодарили: 3
Поделиться ссылкой на эту раздачу с друзьями:
В контактеFacebookОдноклассникиTwitterLivejournalМой МирLiveinternet
 

 
Показать сообщения:    


Вы не можете начинать темы
Вы не можете отвечать на сообщения
Вы не можете редактировать свои сообщения
Вы не можете удалять свои сообщения
Вы не можете голосовать в опросах
Вы не можете прикреплять файлы к сообщениям
Вы можете скачивать файлы