Loading...
Error

/ Common Law ( 1, 01-09 12) ( ) [2012, , WEB-DL] [720p] [NewStudio]

 
13,09 GB   |    :  133
1  [  0 KB/s  ]  
 

leon030982

[] 


Common Law
: 2012
:
:
: ~70
: () (NewStudio)
:
:
: , , , ,
: . -. . , . .


| | Sample
:
: ,
: PurEnergy
: GRAFT, Jeketeur
: Koss
: WEB-DL 720p

: MKV
: AVC, 1280x720, 23.976 fps, ~4000 kbps, 0.25 b / p
#1: 48 kHz, Dolby Digital 2.0 192 kbps - rus
#2: 48 kHz, Dolby Digital 5.1 384 kbps - eng

:

Encoded date : UTC 2012-06-06 19:00:38
Writing application : mkvmerge v5.5.0 ('Healer') built on Apr 6 2012 21:43:24
Writing library : libebml v1.2.3 + libmatroska v1.3.0
Video
ID : 1
Format : AVC
Format/Info : Advanced Video Codec
Format profile : High@L3.1
Format settings, CABAC : No
Format settings, ReFrames : 2 frames
Codec ID : V_MPEG4/ISO/AVC
Duration : 1h 7mn
Bit rate : 4 201 Kbps
Width : 1 280 pixels
Height : 720 pixels
Display aspect ratio : 16:9
Frame rate : 23.976 fps
Color space : YUV
Chroma subsampling : 4:2:0
Bit depth : 8 bits
Scan type : Progressive
Bits/(Pixel*Frame) : 0.190
Stream size : 1.99 GiB (86%)
Language : English
Default : Yes
Forced : No
Color primaries : BT.709-5, BT.1361, IEC 61966-2-4, SMPTE RP177
Transfer characteristics : BT.709-5, BT.1361
Matrix coefficients : BT.709-5, BT.1361, IEC 61966-2-4 709, SMPTE RP177
Audio #1
ID : 2
Format : AC-3
Format/Info : Audio Coding 3
Mode extension : CM (complete main)
Muxing mode : Header stripping
Codec ID : A_AC3
Duration : 1h 7mn
Bit rate mode : Constant
Bit rate : 192 Kbps
Channel(s) : 2 channels
Channel positions : Front: L R
Sampling rate : 48.0 KHz
Bit depth : 16 bits
Compression mode : Lossy
Stream size : 93.2 MiB (4%)
Language : Russian
Default : Yes
Forced : No
Audio #2
ID : 3
Format : AC-3
Format/Info : Audio Coding 3
Mode extension : CM (complete main)
Codec ID : A_AC3
Duration : 1h 7mn
Bit rate mode : Constant
Bit rate : 384 Kbps
Channel(s) : 6 channels
Channel positions : Front: L C R, Side: L R, LFE
Sampling rate : 48.0 KHz
Bit depth : 16 bits
Compression mode : Lossy
Stream size : 186 MiB (8%)
Language : English
Default : No
Forced : No
! ; . , : (1) , (2) ( ), (3) , .
() ( - ), . , !
E , , .
!!! 9 28.09.2012



..Common.Law.(.1..01-09..12).(.).[2012..WEB-DL].[720p].[NewStudio].torrent
  ! ! 
:   [ : ] c?
MAGNET
MAGNET


.torrent

34 KB

: DHT
: - 133 , - 2
: 13,09 GB
- (: 0)
: 1
:
 FacebookTwitterLivejournal Liveinternet
 

 
: