Loading...
Error

/ Les aventures de Rabbi Jacob ( / Gerard Oury) [1973, , , HDRip] [Dub] + 2x[MVO] + [DVO]

 
1007 MB   |    :  158
1  [  0 KB/s  ]  
 

leon030982

[] 

/ Les aventures de Rabbi Jacob

THE WILD... THE HILARIOUS... THE SCREWBALL... THE RIOTOUS
: 1973
: ,
: ,
: 1:35:22

1: ( ) [/ . ]
2: ( ) [] {}
3: ( ) [] {}
4: ( ) [-] {}
: / Gerard Oury

: , , , , , , , , .
: . . , . , . ,
: FRF 18 000 000
MPAA: G ( !)

: HDRip
: , "" "-" ( edich2)
: AVI
: 640x384 (1.67:1), 23.976 fps, XviD build 65 ~955 kbps avg, 0.16 bit/pixel
#1: 48 kHz, MPEG Layer 3, 2 ch, ~128.00 kbps avg [Dub]
#2: 48 kHz, MPEG Layer 3, 2 ch, ~128.00 kbps avg [] {}
#3: 48 kHz, MPEG Layer 3, 2 ch, ~128.00 kbps avg [] {}
#4: 48 kHz, MPEG Layer 3, 2 ch, ~128.00 kbps avg [-] {}
: 745 MB (1/6 DVD) - !

:

[color=black]General
Complete name : C:\Torrents\Rabbi_Jacob.1973.HDRip.[R.G.AllFilms].DUB\Rabbi_Jacob.1973.HDRip.[R.G.AllFilms].avi
Format : AVI
Format/Info : Audio Video Interleave
File size : 745 MiB
Duration : 1h 35mn
Overall bit rate : 1 093 Kbps
Movie name : Les Aventures de Rabbi Jacob (1973) - BDRip by (DeeKay)
Writing application : VirtualDubMod 1.5.10.3 | www.virtualdub-fr.org || (build 2550/release)
Video
ID : 0
Format : MPEG-4 Visual
Format profile : Advanced Simple@L5
Format settings, BVOP : 2
Format settings, QPel : No
Format settings, GMC : No warppoints
Format settings, Matrix : Custom
Codec ID : XVID
Codec ID/Hint : XviD
Duration : 1h 35mn
Bit rate : 955 Kbps
Width : 640 pixels
Height : 384 pixels
Display aspect ratio : 1.667
Frame rate : 23.976 fps
Color space : YUV
Chroma subsampling : 4:2:0
Bit depth : 8 bits
Scan type : Progressive
Compression mode : Lossy
Bits/(Pixel*Frame) : 0.162
Stream size : 652 MiB (87%)
Writing library : XviD 65
Audio
ID : 1
Format : MPEG Audio
Format version : Version 1
Format profile : Layer 3
Mode : Joint stereo
Mode extension : MS Stereo
Codec ID : 55
Codec ID/Hint : MP3
Duration : 1h 35mn
Bit rate mode : Constant
Bit rate : 128 Kbps
Channel(s) : 2 channels
Sampling rate : 48.0 KHz
Compression mode : Lossy
Stream size : 87.3 MiB (12%)
Alignment : Aligned on interleaves
Interleave, duration : 42 ms (1.00 video frame)
Interleave, preload duration : 504 ms
Writing library : L3.99r
Encoding settings : -m j -V 4 -q 0 -lowpass 17 -b 128[/color]

:

[color=darkgreen]General
Complete name : C:\Torrents\Rabbi_Jacob.1973.HDRip.[R.G.AllFilms].DUB\Rabbi_Jacob.1973.HDRip.[R.G.AllFilms].MVO.mp3
Format : MPEG Audio
File size : 87.3 MiB
Duration : 1h 35mn
Overall bit rate mode : Constant
Overall bit rate : 128 Kbps
Audio
Format : MPEG Audio
Format version : Version 1
Format profile : Layer 3
Mode : Joint stereo
Mode extension : MS Stereo
Duration : 1h 35mn
Bit rate mode : Constant
Bit rate : 128 Kbps
Channel(s) : 2 channels
Sampling rate : 48.0 KHz
Compression mode : Lossy
Stream size : 87.3 MiB (100%)[/color]

:

[color=darkblue]General
Complete name : C:\Torrents\Rabbi_Jacob.1973.HDRip.[R.G.AllFilms].DUB\Rabbi_Jacob.1973.HDRip.[R.G.AllFilms].OPT.mp3
Format : MPEG Audio
File size : 87.3 MiB
Duration : 1h 35mn
Overall bit rate mode : Constant
Overall bit rate : 128 Kbps
Audio
Format : MPEG Audio
Format version : Version 1
Format profile : Layer 3
Mode : Joint stereo
Mode extension : MS Stereo
Duration : 1h 35mn
Bit rate mode : Constant
Bit rate : 128 Kbps
Channel(s) : 2 channels
Sampling rate : 48.0 KHz
Compression mode : Lossy
Stream size : 87.3 MiB (100%)[/color]

:

[color=darkred]General
Complete name : C:\Torrents\Rabbi_Jacob.1973.HDRip.[R.G.AllFilms].DUB\Rabbi_Jacob.1973.HDRip.[R.G.AllFilms].DVO.mp3
Format : MPEG Audio
File size : 87.3 MiB
Duration : 1h 35mn
Overall bit rate mode : Constant
Overall bit rate : 128 Kbps
Audio
Format : MPEG Audio
Format version : Version 1
Format profile : Layer 3
Mode : Joint stereo
Mode extension : MS Stereo
Duration : 1h 35mn
Bit rate mode : Constant
Bit rate : 128 Kbps
Channel(s) : 2 channels
Sampling rate : 48.0 KHz
Compression mode : Lossy
Stream size : 87.3 MiB (100%)[/color]





...Les.aventures.de.Rabbi.Jacob.(..Gerard.Oury).[1973...HDRip].[Dub].+.2x[MVO].+.[DVO].torrent
  ! ! 
:   [ : ] c?
MAGNET
MAGNET


.torrent

40 KB

: DHT
: - 158 , - 8
: 1007 MB
- (: 0)
: 0
:
 FacebookTwitterLivejournal Liveinternet
 

 
: