Loading...
Error

Скачать Правосудие / Justified (Сезон 3 полный) (Джон Дал) [2012 г., боевик, драма, криминал, Web-DL] [720p] [Fox Crime] торрент без регистрации

 
Статистика раздачи
Размер:  17,6 GB   |    Скачан:  157 раз
Сидов:  1  [  0 KB/s  ]  
 
Автор Сообщение

leon030982

[] 

Правосудие / Justified

Год выпуска: 2012
Страна: США
Жанр: боевик, драма, криминал
Продолжительность: ~ 44 мин. серия
Перевод: профессиональный многоголосый закадровый (Fox Crime)
Русские субтитры: отсутствуют
Режиссёр: Джон Дал
В ролях: Тимоти Олифант / Timothy Olyphant ("Крепкий орешек 4", "Рок-звезда", "Ловец снов"), Натали Зиа / Natalie Zea ("Грязные мокрые деньги", "Жеребец"), Ник Сирси / Nick Searcy ("Изгой", "Беглец"), Джекоб Питтс / Jacob Pitts, Джоэль Картер / Joelle Carter, Уолтон Гоггинс / Walton Goggins, Уильям Рэгсдэйл / William Ragsdale
и др.
Описание: История федерального маршала Рейлана Гивенса, современного законоохранника, все еще придерживающегося старомодных взглядов на правосудие. Из-за его строгого морального кодекса Гивенс быстро становится мишенью как для преступников, так и для коллег.

Качество: Web-DL
Формат: MKV
Видео кодек: H.264
Аудио кодек: AC3
Видео: MPEG4 Video (H.264) 1280x720 (1.778) 23.98fps 4087 Kbps 0.185 bit/pixel
Аудио (русский): 48.0 kHz AC3 Dolby Digital 2 ch 192.00 kbps
Аудио (english) : 48.0 kHz AC3 Dolby Digital 6 ch 384.00 kbps
General
Unique ID : 238787502715427870270239821317540134255 (0xB3A4CCD8C2CB628E83028893DBC3BD6F)
Complete name : Justified.s03e01.WEBDL.720p.NewStudio.TV.Proper.mkv
Format : Matroska
Format version : Version 2
File size : 1.47 GiB
Duration : 44mn 14s
Overall bit rate : 4 758 Kbps
Encoded date : UTC 2012-05-11 16:47:49
Writing application : mkvmerge v2.9.9 ('Tutu') built on Nov 25 2009 21:13:32
Writing library : libebml v0.7.9 + libmatroska v0.8.1
Video
ID : 1
Format : AVC
Format/Info : Advanced Video Codec
Format profile : High@L3.1
Format settings, CABAC : No
Format settings, ReFrames : 2 frames
Codec ID : V_MPEG4/ISO/AVC
Duration : 44mn 14s
Bit rate : 4 087 Kbps
Width : 1 280 pixels
Height : 720 pixels
Display aspect ratio : 16:9
Frame rate : 23.976 fps
Color space : YUV
Chroma subsampling : 4:2:0
Bit depth : 8 bits
Scan type : Progressive
Bits/(Pixel*Frame) : 0.185
Stream size : 1.26 GiB (86%)
Language : English
Default : No
Forced : No
Color primaries : BT.709-5, BT.1361, IEC 61966-2-4, SMPTE RP177
Transfer characteristics : BT.709-5, BT.1361
Matrix coefficients : BT.709-5, BT.1361, IEC 61966-2-4 709, SMPTE RP177
Audio #1
ID : 2
Format : AC-3
Format/Info : Audio Coding 3
Mode extension : CM (complete main)
Codec ID : A_AC3
Duration : 44mn 14s
Bit rate mode : Constant
Bit rate : 192 Kbps
Channel(s) : 2 channels
Channel positions : Front: L R
Sampling rate : 48.0 KHz
Bit depth : 16 bits
Compression mode : Lossy
Stream size : 60.7 MiB (4%)
Default : Yes
Forced : Yes
Audio #2
ID : 3
Format : AC-3
Format/Info : Audio Coding 3
Mode extension : CM (complete main)
Codec ID : A_AC3
Duration : 44mn 14s
Bit rate mode : Constant
Bit rate : 384 Kbps
Channel(s) : 6 channels
Channel positions : Front: L C R, Side: L R, LFE
Sampling rate : 48.0 KHz
Bit depth : 16 bits
Compression mode : Lossy
Stream size : 121 MiB (8%)
Language : English
Default : No
Forced : No




Скачать Правосудие.Justified.(Сезон.3.полный).(Джон.Дал).[2012.г.боевик.драма.криминал.Web-DL].[720p].[Fox.Crime].torrent без регистрации
Золото ЗОЛОТАЯ РАЗДАЧА! СКАЧАННОЕ НЕ ЗАСЧИТЫВАЕТСЯ! Золото
Дата: Зарегистрирован   [ Тип: внутренний ] Как тут cкачать?
MAGNET ссылка
MAGNET ссылка


Скачать .torrent

46 KB

Статус: проверено DHT
Скачан: торрент - 157 раз, раздача полностью - 77 раз
Размер: 17,6 GB
Оценка:  - (Голосов: 0)
Поблагодарили: 4
Поделиться ссылкой на эту раздачу с друзьями:
В контактеFacebookОдноклассникиTwitterLivejournalМой МирLiveinternet
 

 
Показать сообщения:    


Вы не можете начинать темы
Вы не можете отвечать на сообщения
Вы не можете редактировать свои сообщения
Вы не можете удалять свои сообщения
Вы не можете голосовать в опросах
Вы не можете прикреплять файлы к сообщениям
Вы можете скачивать файлы