Loading...
Error

Скачать Континуум / Continuum (Полный 1-ый сезон) (Пэт Уильямс, Джон Кассар) [2012, фантастика, триллер, драма, WEB-DLRip] [720p] [LostFilm] торрент без регистрации

 
Статистика раздачи
Размер:  14,84 GB   |    Скачан:  177 раз
Сидов:  1  [  0 KB/s  ]  
 
Автор Сообщение

leon030982

[] 

Континуум / Continuum
Год выпуска: 2012
Страна: США, Канада
Жанр: фантастика, триллер, драма
Продолжительность: 00:44:30
Перевод: Профессиональный многоголосый закадровый (LostFilm)
Русские субтитры: нет

Режиссёр: Пэт Уильямс, Джон Кассар

В ролях: Рэйчел Николс, Виктор Уэбстер, Эрик Кнудсен, Стефен Лобо, Ричард Хэрмон, Брайан Маркинсон, Дженнифер Спенс, Джон Генри Рирдон, Роджер Р. Кросс, Лекса Дойг

Описание: Избежав казни в 2077 году, группа террористов-фанатиков перемещается в наше время вместе с преследующим их офицером городской службы безопасности Кирой Кэмерон. Застряв в прошлом и не имея возможности вернуться к мужу и сыну, Кира концентрируется на нейтрализации террористов, пока они навсегда не изменили ход истории. Кира получает неожиданную помощь от одаренного подростка Алека Сэдлера. Выдавая себя за сотрудника местных правоохранительных органов для ускорения расследования, она работает вместе со своим новым напарником детективом Карлосом Фоннегра.

Качество: WEB-DLRip 720р
Формат: MKV
Видео кодек: H.264
Аудио кодек: AC3
Видео: 1280x720 (16:9), 23.976 fps, ~4000 kbps, ~0.180 bit/pixel
Аудио 1: Rus: 48 kHz, AC3, 3/2 (L,C,R,l,r) + LFE ch, ~384 kbps avg |LostFilm|
Аудио 2: Eng: 48 kHz, AC3, 3/2 (L,C,R,l,r) + LFE ch, ~384 kbps avg |Original|
Релиз:

General
Unique ID : 230701732167552699066239607431562500264 (0xAD8F89946148C54BA19CDBF80A7B98A8)
Complete name : I:\ЗАКАЧКИ\Continuum.S01 720p WEB-DL( LostFilm)\Continuum.S01E01.720p.WEB-DL.( LostFilm).mkv
Format : Matroska
File size : 1.50 GiB
Duration : 44mn 4s
Overall bit rate : 4 866 Kbps
Movie name : Continuum [Season 1] (2012) - Release for HDCLUB
Encoded date : UTC 2012-06-13 05:01:23
Writing application : mkvmerge v4.6.0 ('Still Crazy After All These Years') сборка от Apr 1 2011 21:01:49
Writing library : libebml v1.2.0 + libmatroska v1.1.0
Video
ID : 1
Format : AVC
Format/Info : Advanced Video Codec
Format profile : High@L3.1
Format settings, CABAC : No
Format settings, ReFrames : 2 frames
Codec ID : V_MPEG4/ISO/AVC
Duration : 44mn 4s
Bit rate : 4 002 Kbps
Width : 1 280 pixels
Height : 720 pixels
Display aspect ratio : 16:9
Frame rate : 23.976 fps
Color space : YUV
Chroma subsampling : 4:2:0
Bit depth : 8 bits
Scan type : Progressive
Bits/(Pixel*Frame) : 0.181
Stream size : 1.23 GiB (82%)
Title : Continuum S01E01: A Stitch in Time / Прыжок во времени - Release for HDCLUB
Language : English
Color primaries : BT.709-5, BT.1361, IEC 61966-2-4, SMPTE RP177
Transfer characteristics : BT.709-5, BT.1361
Matrix coefficients : BT.709-5, BT.1361, IEC 61966-2-4 709, SMPTE RP177
Audio #1
ID : 2
Format : AC-3
Format/Info : Audio Coding 3
Mode extension : CM (complete main)
Codec ID : A_AC3
Duration : 44mn 4s
Bit rate mode : Constant
Bit rate : 384 Kbps
Channel(s) : 6 channels
Channel positions : Front: L C R, Side: L R, LFE
Sampling rate : 48.0 KHz
Bit depth : 16 bits
Compression mode : Lossy
Stream size : 121 MiB (8%)
Title : AC3 5.1 @ LostFilm
Language : Russian
Audio #2
ID : 3
Format : AC-3
Format/Info : Audio Coding 3
Mode extension : CM (complete main)
Codec ID : A_AC3
Duration : 44mn 4s
Bit rate mode : Constant
Bit rate : 384 Kbps
Channel(s) : 6 channels
Channel positions : Front: L C R, Side: L R, LFE
Sampling rate : 48.0 KHz
Bit depth : 16 bits
Compression mode : Lossy
Stream size : 121 MiB (8%)
Title : AC3 5.1
Language : English
Text #1
ID : 4
Format : UTF-8
Codec ID : S_TEXT/UTF8
Codec ID/Info : UTF-8 Plain Text
Language : Russian
Text #2
ID : 5
Format : UTF-8
Codec ID : S_TEXT/UTF8
Codec ID/Info : UTF-8 Plain Text
Language : English
Озвучка: Студия "LostFilm".

Внимание добавлены финальные 9-10-я серии 10.08.2012



Скачать Континуум.Continuum.(Полный.1-ый.сезон).(Пэт.Уильямс.Джон.Кассар).[2012.фантастика.триллер.драма.WEB-DLRip].[720p].[LostFilm].torrent без регистрации
Золото ЗОЛОТАЯ РАЗДАЧА! СКАЧАННОЕ НЕ ЗАСЧИТЫВАЕТСЯ! Золото
Дата: Зарегистрирован   [ Тип: внутренний ] Как тут cкачать?
MAGNET ссылка
MAGNET ссылка


Скачать .torrent

75 KB

Статус: проверено DHT
Скачан: торрент - 177 раз, раздача полностью - 27 раз
Размер: 14,84 GB
Оценка:  5 (Голосов: 2)
Поблагодарили: 7
Поделиться ссылкой на эту раздачу с друзьями:
В контактеFacebookОдноклассникиTwitterLivejournalМой МирLiveinternet
 

 

happyuser

[] 

Фантастика - жанр,по моему скромному мнению, - красивый и интересный ay ay ay,поэтому ну никак нельзя пропустить этот сериал!!!
 
Показать сообщения:    


Вы не можете начинать темы
Вы не можете отвечать на сообщения
Вы не можете редактировать свои сообщения
Вы не можете удалять свои сообщения
Вы не можете голосовать в опросах
Вы не можете прикреплять файлы к сообщениям
Вы можете скачивать файлы