Loading...
Error

Скачать Континуум / Continuum (Полный 1-ый сезон) (Пэт Уильямс, Джон Кассар) [2012 г., фантастика, триллер, драма, WEB-DLRip] [MVO] (LostFilm) торрент без регистрации

 
Статистика раздачи
Размер:  4,4 GB   |    Скачан:  207 раз
Сидов:  1  [  0 KB/s  ]  
 
Автор Сообщение

leon030982

[] 



Континуум / Continuum


Год выпуска: 2012
Страна: США, Канада | Showcase
Жанр: фантастика, триллер, драма
Продолжительность: ~ 42 минуты
Перевод: Профессиональный (многоголосый, закадровый) - LostFilm
Субтитры: Нет
Режиссёры: Пэт Уильямс, Джон Кассар
В ролях: Рэйчел Николс, Виктор Уэбстер, Эрик Кнудсен, Стефен Лобо, Ричард Хэрмон, Брайан Маркинсон, Дженнифер Спенс, Джон Генри Рирдон, Роджер Р. Кросс, Лекса Дойг и др.
Описание: Кира Кэмерон, уникальный специалист, и компьютерный гений по имени Садлер в недалеком прошлом будут пытаться остановить группу террористов-фанатиков: Попавшая в 2012-й год вместе с бегущими от властей экстремистами Кира устраивается обычным сотрудником в обычное отделение полиции - так начинается новый фантастический сериал, в котором герои будут перемещаться не только в пространстве, но и во времени.
Качество: WEB-DLRip
Формат: AVI
Видео кодек: XviD
Аудио кодек: MP3
Видео: 720x400 (16:9), 23.976 fps, ~1200 kbps, ~0.170 bit/pixel
Аудио Rus: 48 kHz, 2 ch, ~128 kbps |LostFilm|
Аудио Eng: 48 kHz, 2 ch, ~128 kbps |Original|

Озвучка: Студия "LostFilm"
Рип: LegendKiev
/ Сэмпл / ImDB / Кинопоиск
Прыжок во времени / A Stitch in Time
[b]Общее
Полное имя : F:\Continuum.s01.LostFilm\Continuum.s01e01.LostFilm.avi
Формат : AVI
Формат/Информация : Audio Video Interleave
Размер файла : 450 Мбайт
Продолжительность : 44 м.
Общий поток : 1428 Кбит/сек
Программа кодирования : VirtualDubMod 1.5.10.2 (build 2540/release)
Библиотека кодирования : VirtualDubMod build 2540/release
Видео
Идентификатор : 0
Формат : MPEG-4 Visual
Профиль формата : Advanced Simple@L5
Параметр BVOP формата : 1
Параметр QPel формата : Нет
Параметр GMC формата : Без точки перехода
Параметр матрицы формата : Выборочная
Идентификатор кодека : XVID
Идентификатор кодека/Подсказка : XviD
Продолжительность : 44 м.
Битрейт : 1158 Кбит/сек
Ширина : 720 пикселей
Высота : 400 пикселей
Соотношение сторон : 16:9
Частота кадров : 23,976 кадра/сек
Цветовое пространство : YUV
Субдискретизация насыщенности : 4:2:0
Битовая глубина : 8 бит
Тип развёртки : Прогрессивная
Метод сжатия : С потерями
Бит/(Пиксели*Кадры) : 0.168
Размер потока : 365 Мбайт (81%)
Библиотека кодирования : XviD 65
Аудио #1
Идентификатор : 1
Формат : MPEG Audio
Версия формата : Version 1
Профиль формата : Layer 3
Режим : Joint stereo
Расширение режима : MS Stereo
Идентификатор кодека : 55
Идентификатор кодека/Подсказка : MP3
Продолжительность : 44 м.
Вид битрейта : Постоянный
Битрейт : 128 Кбит/сек
Каналы : 2 канала
Частота : 48,0 КГц
Метод сжатия : С потерями
Размер потока : 40,4 Мбайт (9%)
Выравнивание : Соединение по промежуткам
Продолжительность промежутка : 42 мс. (1,00 видеокадр)
Время предзагрузки промежутка : 504 мс.
Аудио #2
Идентификатор : 2
Формат : MPEG Audio
Версия формата : Version 1
Профиль формата : Layer 3
Режим : Joint stereo
Расширение режима : MS Stereo
Идентификатор кодека : 55
Идентификатор кодека/Подсказка : MP3
Продолжительность : 44 м.
Вид битрейта : Постоянный
Битрейт : 128 Кбит/сек
Каналы : 2 канала
Частота : 48,0 КГц
Метод сжатия : С потерями
Размер потока : 40,4 Мбайт (9%)
Выравнивание : Соединение по промежуткам
Продолжительность промежутка : 42 мс. (1,00 видеокадр)
Время предзагрузки промежутка : 504 мс.



Скачать Континуум.Continuum.(Полный.1-ый.сезон).(Пэт.Уильямс.Джон.Кассар).[2012.г.фантастика.триллер.драма.WEB-DLRip].[MVO].(LostFilm).torrent без регистрации
Золото ЗОЛОТАЯ РАЗДАЧА! СКАЧАННОЕ НЕ ЗАСЧИТЫВАЕТСЯ! Золото
Дата: Зарегистрирован   [ Тип: внутренний ] Как тут cкачать?
MAGNET ссылка
MAGNET ссылка


Скачать .torrent

23 KB

Статус: проверено DHT
Скачан: торрент - 207 раз, раздача полностью - 292 раз
Размер: 4,4 GB
Оценка:  5 (Голосов: 5)
Поблагодарили: 8
Поделиться ссылкой на эту раздачу с друзьями:
В контактеFacebookОдноклассникиTwitterLivejournalМой МирLiveinternet
 

 
Показать сообщения:    


Вы не можете начинать темы
Вы не можете отвечать на сообщения
Вы не можете редактировать свои сообщения
Вы не можете удалять свои сообщения
Вы не можете голосовать в опросах
Вы не можете прикреплять файлы к сообщениям
Вы можете скачивать файлы