Loading...
Error

Скачать Потаскушка / La Garce (Кристин Паскаль) [1984, Драма, VHSRip] [MVO] торрент без регистрации

 
Статистика раздачи
Размер:  1,37 GB   |    Скачан:  128 раз

Полного источника не было: 19 минут

 
Автор Сообщение

Marsianka

[] 

Информация о фильме
Название: Потаскушка
Оригинальное название: La Garce
Год выхода: 1984
Жанр: Драма
Режиссер: Кристин Паскаль
В ролях: Изабель Юппер, Ришар Берри, Витторио Меццоджорно, Жан Бенгиги, Жан-Клод Легэ, Жан-Пьер Мулен, Клеман Арари, Дэниэл Жегу, Женни Клев, Жан-Пьер Баго

О фильме:
Однажды, потеряв над собой контроль, образцовый полицейский Люсьен изнасиловал несовершеннолетнюю Алин. Внезапное затмение стоило ему шести лет тюрьмы. Выйдя на свободу, словно по чьему-то злому умыслу Люсьен снова встречает Алин, которая стала девушкой криминального «короля» и сменила имя. Неодолимая сила снова соединяет их вместе. Безумство повторяется вновь Но эта встреча не могла быть случайной. Старые грехи не дают шанса на счастье.



Страна: Франция
Продолжительность: 01:28:54
Перевод: Профессиональный (многоголосый, закадровый)

Файл
Кодек: XviD
Качество: VHSRip
Видео: 720x464, ~2066 kbps avg, 25 fps
Звук: 48 kHz, MPEG Layer 3, 2 ch, ~128.00 kbps avg
Субтитры: Нет

Семпл

Общее
Полное имя : D:потаскушка.avi
Формат : AVI
Формат/Информация : Audio Video Interleave
Размер файла : 1,37 Гбайт
Продолжительность : 1 ч. 28 м.
Общий поток : 2201 Кбит/сек
Программа кодирования : VirtualDubMod 1.5.4.1 (build 2178/release)
Библиотека кодирования : VirtualDubMod build 2178/release

Видео
Идентификатор : 0
Формат : MPEG-4 Visual
Профиль формата : Advanced Simple@L5
Параметр BVOP формата : 1
Параметр QPel формата : Нет
Параметр GMC формата : Без точки перехода
Параметр матрицы формата : Выборочная
Идентификатор кодека : XVID
Идентификатор кодека/Подсказка : XviD
Продолжительность : 1 ч. 28 м.
Битрейт : 2066 Кбит/сек
Ширина : 720 пикселей
Высота : 464 пикселя
Соотношение сторон : 1,552
Частота кадров : 25,000 кадров/сек
Цветовое пространство : YUV
Субдискретизация насыщенности : 4:2:0
Битовая глубина : 8 бит
Тип развёртки : Прогрессивная
Метод сжатия : С потерями
Бит/(Пиксели*Кадры) : 0.247
Размер потока : 1,28 Гбайт (94%)
Библиотека кодирования : XviD 1.2.1 (UTC 2008-12-04)

Аудио
Идентификатор : 1
Формат : MPEG Audio
Версия формата : Version 1
Профиль формата : Layer 3
Режим : Joint stereo
Расширение режима : MS Stereo
Идентификатор кодека : 55
Идентификатор кодека/Подсказка : MP3
Продолжительность : 1 ч. 28 м.
Вид битрейта : Постоянный
Битрейт : 128 Кбит/сек
Каналы : 2 канала
Частота : 48,0 КГц
Метод сжатия : С потерями
Размер потока : 81,4 Мбайт (6%)
Выравнивание : Соединение по промежуткам
Продолжительность промежутка : 80 мс. (2,00 видеокадра)
Время предзагрузки промежутка : 504 мс.
Библиотека кодирования : LAME З,irЁ+ftєYPt
Релиз от:



Скачать Потаскушка.La.Garce.(Кристин.Паскаль).[1984.Драма.VHSRip].[MVO].torrent без регистрации
Золото ЗОЛОТАЯ РАЗДАЧА! СКАЧАННОЕ НЕ ЗАСЧИТЫВАЕТСЯ! Золото
Дата: Зарегистрирован   [ Тип: внутренний ] Как тут cкачать?
MAGNET ссылка
MAGNET ссылка


Скачать .torrent

14 KB

Статус: проверено DHT
Скачан: торрент - 128 раз, раздача полностью - 3 раз
Размер: 1,37 GB
Оценка:  - (Голосов: 0)
Поблагодарили: 2
Поделиться ссылкой на эту раздачу с друзьями:
В контактеFacebookОдноклассникиTwitterLivejournalМой МирLiveinternet
 

 
Показать сообщения:    


Вы не можете начинать темы
Вы не можете отвечать на сообщения
Вы не можете редактировать свои сообщения
Вы не можете удалять свои сообщения
Вы не можете голосовать в опросах
Вы не можете прикреплять файлы к сообщениям
Вы можете скачивать файлы